<?xml version="1.0" standalone="no"?>
<!DOCTYPE svg PUBLIC "-//W3C//DTD SVG 1.1//EN" "http://www.w3.org/Graphics/SVG/1.1/DTD/svg11.dtd" >
<svg xmlns="http://www.w3.org/2000/svg">
<metadata>Generated by IcoMoon</metadata>
<defs>
<font id="The-Icon-of" horiz-adv-x="1024">
<font-face units-per-em="1024" ascent="832" descent="-192" />
<missing-glyph horiz-adv-x="1024" />
<glyph unicode="&#x20;" horiz-adv-x="512" d="" />
<glyph unicode="&#xe900;" glyph-name="add_circle_outlined" d="M512 725.334c-235.641 0-426.667-191.025-426.667-426.667s191.025-426.667 426.667-426.667c235.641 0 426.667 191.025 426.667 426.667v0c0 235.641-191.025 426.667-426.667 426.667v0zM512-42.666c-188.513 0-341.333 152.82-341.333 341.333s152.82 341.333 341.333 341.333c188.513 0 341.333-152.82 341.333-341.333v0c0-188.513-152.82-341.333-341.333-341.333v0zM661.333 341.334h-106.667v106.667c0 11.782-9.551 21.333-21.333 21.333v0h-42.667c-11.782 0-21.333-9.551-21.333-21.333v0-106.667h-106.667c-11.782 0-21.333-9.551-21.333-21.333v0-42.667c0-11.782 9.551-21.333 21.333-21.333v0h106.667v-106.667c0-11.782 9.551-21.333 21.333-21.333v0h42.667c11.782 0 21.333 9.551 21.333 21.333v0 106.667h106.667c11.782 0 21.333 9.551 21.333 21.333v0 42.667c0 11.782-9.551 21.333-21.333 21.333v0z" />
<glyph unicode="&#xe901;" glyph-name="add_circle" d="M512 725.334c-235.641 0-426.667-191.025-426.667-426.667s191.025-426.667 426.667-426.667c235.641 0 426.667 191.025 426.667 426.667v0c0 235.641-191.025 426.667-426.667 426.667v0zM682.667 277.334c0-11.782-9.551-21.333-21.333-21.333v0h-106.667v-106.667c0-11.782-9.551-21.333-21.333-21.333v0h-42.667c-11.782 0-21.333 9.551-21.333 21.333v0 106.667h-106.667c-11.782 0-21.333 9.551-21.333 21.333v0 42.667c0 11.782 9.551 21.333 21.333 21.333v0h106.667v106.667c0 11.782 9.551 21.333 21.333 21.333v0h42.667c11.782 0 21.333-9.551 21.333-21.333v0-106.667h106.667c11.782 0 21.333-9.551 21.333-21.333v0z" />
<glyph unicode="&#xe902;" glyph-name="add_square_outlined" d="M810.667 682.667h-597.333c-47.128 0-85.333-38.205-85.333-85.333v0-597.333c0-47.128 38.205-85.333 85.333-85.333v0h597.333c47.128 0 85.333 38.205 85.333 85.333v0 597.333c0 47.128-38.205 85.333-85.333 85.333v0zM810.667-0h-597.333v597.333h597.333zM362.667 256h106.667v-106.667c0-11.782 9.551-21.333 21.333-21.333v0h42.667c11.782 0 21.333 9.551 21.333 21.333v0 106.667h106.667c11.782 0 21.333 9.551 21.333 21.333v0 42.667c0 11.782-9.551 21.333-21.333 21.333v0h-106.667v106.667c0 11.782-9.551 21.333-21.333 21.333v0h-42.667c-11.782 0-21.333-9.551-21.333-21.333v0-106.667h-106.667c-11.782 0-21.333-9.551-21.333-21.333v0-42.667c0-11.782 9.551-21.333 21.333-21.333v0z" />
<glyph unicode="&#xe903;" glyph-name="add_square" d="M810.667 682.667h-597.333c-47.128 0-85.333-38.205-85.333-85.333v0-597.333c0-47.128 38.205-85.333 85.333-85.333v0h597.333c47.128 0 85.333 38.205 85.333 85.333v0 597.333c0 47.128-38.205 85.333-85.333 85.333v0zM682.667 277.334c0-11.782-9.551-21.333-21.333-21.333v0h-106.667v-106.667c0-11.782-9.551-21.333-21.333-21.333v0h-42.667c-11.782 0-21.333 9.551-21.333 21.333v0 106.667h-106.667c-11.782 0-21.333 9.551-21.333 21.333v0 42.667c0 11.782 9.551 21.333 21.333 21.333v0h106.667v106.667c0 11.782 9.551 21.333 21.333 21.333v0h42.667c11.782 0 21.333-9.551 21.333-21.333v0-106.667h106.667c11.782 0 21.333-9.551 21.333-21.333v0z" />
<glyph unicode="&#xe904;" glyph-name="add" d="M810.667 320v-42.667c0-11.782-9.551-21.333-21.333-21.333v0h-234.667v-234.667c0-11.782-9.551-21.333-21.333-21.333v0h-42.667c-11.782 0-21.333 9.551-21.333 21.333v0 234.667h-234.667c-11.782 0-21.333 9.551-21.333 21.333v0 42.667c0 11.782 9.551 21.333 21.333 21.333v0h234.667v234.667c0 11.782 9.551 21.333 21.333 21.333v0h42.667c11.782 0 21.333-9.551 21.333-21.333v0-234.667h234.667c11.782 0 21.333-9.551 21.333-21.333v0z" />
<glyph unicode="&#xe905;" glyph-name="appointment_cancelled" d="M896 554.667c0 47.128-38.205 85.333-85.333 85.333v0h-42.667v64c0 11.782-9.551 21.333-21.333 21.333v0h-42.667c-11.782 0-21.333-9.551-21.333-21.333v0-64h-341.333v64c0 11.782-9.551 21.333-21.333 21.333v0h-42.667c-11.782 0-21.333-9.551-21.333-21.333v0-64h-42.667c-47.128 0-85.333-38.205-85.333-85.333v0-554.667c0-47.128 38.205-85.333 85.333-85.333v0h597.333c47.128 0 85.333 38.205 85.333 85.333v0zM810.667-0h-597.333v469.333h597.333zM564.907 256l68.693 69.12c3.984 3.745 6.465 9.050 6.465 14.933s-2.481 11.188-6.454 14.923l-0.011 0.010-22.613 22.613c-3.745 3.984-9.050 6.465-14.933 6.465s-11.188-2.481-14.923-6.454l-0.010-0.011-69.12-68.693-69.12 68.693c-3.745 3.984-9.050 6.465-14.933 6.465s-11.188-2.481-14.923-6.454l-0.010-0.011-22.613-22.613c-3.984-3.745-6.465-9.050-6.465-14.933s2.481-11.188 6.454-14.923l0.011-0.010 68.693-69.12-68.693-69.12c-3.984-3.745-6.465-9.050-6.465-14.933s2.481-11.188 6.454-14.923l0.011-0.010 22.613-22.613c3.745-3.984 9.050-6.465 14.933-6.465s11.188 2.481 14.923 6.454l0.010 0.011 69.12 68.693 69.12-68.693c3.745-3.984 9.050-6.465 14.933-6.465s11.188 2.481 14.923 6.454l0.010 0.011 22.613 22.613c3.984 3.745 6.465 9.050 6.465 14.933s-2.481 11.188-6.454 14.923l-0.011 0.010z" />
<glyph unicode="&#xe906;" glyph-name="appointment" d="M810.667 640h-42.667v64c0 11.782-9.551 21.333-21.333 21.333v0h-42.667c-11.782 0-21.333-9.551-21.333-21.333v0-64h-341.333v64c0 11.782-9.551 21.333-21.333 21.333v0h-42.667c-11.782 0-21.333-9.551-21.333-21.333v0-64h-42.667c-47.128 0-85.333-38.205-85.333-85.333v0-554.667c0-47.128 38.205-85.333 85.333-85.333v0h597.333c47.128 0 85.333 38.205 85.333 85.333v0 554.667c0 47.128-38.205 85.333-85.333 85.333v0zM810.667-0h-597.333v469.333h597.333zM451.84 134.4c3.745-3.984 9.050-6.465 14.933-6.465s11.188 2.481 14.923 6.454l0.010 0.011 181.333 180.907c3.797 3.912 6.137 9.256 6.137 15.147s-2.341 11.234-6.142 15.152l0.005-0.005-23.040 22.613c-3.912 3.797-9.256 6.137-15.147 6.137s-11.234-2.341-15.152-6.142l-143.355-143.355-52.48 52.907c-3.912 3.797-9.256 6.137-15.147 6.137s-11.234-2.341-15.152-6.142l0.005 0.005-22.613-21.76c-3.771-3.845-6.098-9.117-6.098-14.933s2.327-11.088 6.102-14.937l-0.003 0.003z" />
<glyph unicode="&#xe907;" glyph-name="archive" d="M810.667 682.667h-597.333c-46.933 0-85.333-38.4-85.333-85.333v-597.333c0-46.933 38.4-85.333 85.333-85.333h597.333c46.933 0 85.333 38.4 85.333 85.333v597.333c0 46.933-38.4 85.333-85.333 85.333zM678.4 200.534l-149.333-149.333c-8.533-8.533-21.333-8.533-29.867 0 0 0 0 0 0 0l-149.333 149.333c-8.533 8.533-8.533 21.333 0 29.867l8.533 8.533c4.267 4.267 8.533 4.267 17.067 4.267h51.2v162.133c0 12.8 8.533 21.333 21.333 21.333h128c12.8 0 21.333-8.533 21.333-21.333v-162.133h55.467c4.267 0 12.8 0 17.067-4.267l8.533-8.533c8.533-8.533 8.533-21.333 0-29.867zM810.667 512h-597.333v85.333h597.333v-85.333z" />
<glyph unicode="&#xe908;" glyph-name="autorenew" d="M557.227 761.6l151.040-150.613c3.797-3.912 6.137-9.256 6.137-15.147s-2.341-11.234-6.142-15.152l0.005 0.005-151.040-150.613c-3.867-3.898-9.225-6.31-15.147-6.31s-11.28 2.413-15.145 6.309l-8.534 8.534c-3.949 3.809-6.402 9.146-6.402 15.057 0 0.107 0.001 0.213 0.002 0.319v-0.016 100.693c-141.385 0-256-114.615-256-256v0c0-0.143 0-0.312 0-0.482 0-43.377 10.898-84.21 30.104-119.908l-0.664 1.35c1.569-2.898 2.492-6.344 2.492-10.005 0-5.932-2.421-11.299-6.33-15.166l-31.149-31.149c-3.853-3.815-9.156-6.173-15.009-6.173-1.027 0-2.036 0.073-3.024 0.213l0.113-0.013c-6.758 1.052-12.418 5.026-15.731 10.566l-0.056 0.101c-28.75 48.957-45.73 107.829-45.73 170.667 0 188.39 152.621 341.134 340.965 341.333h0.019v97.707c-0.001 0.090-0.002 0.197-0.002 0.303 0 5.911 2.453 11.248 6.396 15.051l8.539 8.539c3.867 3.898 9.225 6.31 15.147 6.31s11.28-2.413 15.145-6.309l0.001-0.001zM466.773 167.254l-151.040-150.613c-3.797-3.912-6.137-9.256-6.137-15.147s2.341-11.234 6.142-15.152l-0.005 0.005 151.040-150.613c3.867-3.898 9.225-6.31 15.147-6.31s11.28 2.413 15.145 6.309l8.534 8.534c3.949 3.809 6.402 9.146 6.402 15.057 0 0.107-0.001 0.213-0.002 0.319v-0.016 97.707c188.363 0.199 340.983 152.943 340.983 341.333 0 62.838-16.98 121.71-46.602 172.277l0.872-1.611c-3.45 5.471-9.095 9.289-15.668 10.226l-0.118 0.014c-0.875 0.127-1.884 0.2-2.911 0.2-5.853 0-11.156-2.357-15.011-6.175l-31.571-31.571c-3.856-3.923-6.236-9.308-6.236-15.248 0-3.624 0.886-7.041 2.453-10.046l-0.057 0.12c18.804-34.166 29.867-74.881 29.867-118.18 0-0.002 0-0.005 0-0.007v0c0-141.385-114.615-256-256-256v0 100.693c0.001 0.090 0.002 0.197 0.002 0.303 0 5.911-2.453 11.248-6.396 15.051l-8.539 8.539c-3.867 3.898-9.225 6.31-15.147 6.31s-11.28-2.413-15.145-6.309l-0.001-0.001z" />
<glyph unicode="&#xe909;" glyph-name="block_ads" d="M858.453 495.36l-149.76 149.76c-23.143 23.171-55.12 37.515-90.447 37.547h-213.34c-35.333-0.032-67.31-14.375-90.452-37.545l-0.001-0.001-148.907-149.76c-23.171-23.143-37.515-55.12-37.547-90.447v-213.339c0.032-35.333 14.375-67.31 37.545-90.452l149.761-149.761c23.081-22.689 54.759-36.696 89.708-36.696 0.262 0 0.524 0.001 0.786 0.002h213.293c35.333 0.032 67.31 14.375 90.452 37.545l149.761 149.761c22.689 23.081 36.696 54.759 36.696 89.708 0 0.262-0.001 0.524-0.002 0.786v-0.040 213.333c-0.274 35.023-14.571 66.654-37.545 89.599l-0.001 0.001zM213.333 192.427v213.333c0.051 11.656 4.767 22.2 12.376 29.869l-0.003-0.003 150.187 149.333c7.667 7.606 18.211 12.323 29.857 12.373h213.343c11.656-0.051 22.2-4.767 29.869-12.376l48.637-48.637-422.4-422.4-49.493 48.64c-7.606 7.667-12.323 18.211-12.373 29.857v0.010zM810.667 192.427c-0.051-11.656-4.767-22.2-12.376-29.869l-150.184-150.184c-7.667-7.606-18.211-12.323-29.857-12.373h-213.343c-11.656 0.051-22.2 4.767-29.869 12.376l0.003-0.003-47.787 48.64 422.4 422.4 48.64-48.64c7.606-7.667 12.323-18.211 12.373-29.857v-0.010z" />
<glyph unicode="&#xe90a;" glyph-name="bookmark_outlined" d="M768 640v-648.107l-188.16 117.333c-19.254 12.209-42.701 19.456-67.84 19.456s-48.586-7.247-68.365-19.766l0.525 0.31-188.16-117.333v648.107h512zM768 725.334h-512c-47.128 0-85.333-38.205-85.333-85.333v0-725.333c0-23.564 19.103-42.667 42.667-42.667v0c0.041 0 0.089 0 0.137 0 8.323 0 16.090 2.383 22.654 6.504l-0.178-0.104 253.44 158.72c6.418 4.070 14.234 6.485 22.613 6.485s16.195-2.416 22.788-6.589l-0.175 0.103 253.44-158.72c6.387-4.017 14.153-6.4 22.476-6.4 0.048 0 0.096 0 0.144 0h-0.007c23.564 0 42.667 19.103 42.667 42.667v0 725.333c0 47.128-38.205 85.333-85.333 85.333v0z" />
<glyph unicode="&#xe90b;" glyph-name="bookmark" d="M853.333-85.333c0-0.025 0-0.055 0-0.085 0-23.564-19.103-42.667-42.667-42.667-8.38 0-16.195 2.416-22.788 6.589l0.175-0.103-253.44 158.72c-6.418 4.070-14.234 6.485-22.613 6.485s-16.195-2.416-22.788-6.589l0.175 0.103-253.44-158.72c-6.418-4.070-14.234-6.485-22.613-6.485-23.564 0-42.667 19.103-42.667 42.667 0 0.030 0 0.060 0 0.090v-0.005 725.333c0 47.128 38.205 85.333 85.333 85.333v0h512c47.128 0 85.333-38.205 85.333-85.333v0z" />
<glyph unicode="&#xe90c;" glyph-name="bookmarks_outlined" d="M170.667 640h512v-648.107l-188.16 117.333c-19.254 12.209-42.701 19.456-67.84 19.456s-48.586-7.247-68.365-19.766l0.525 0.31-188.16-117.333v648.107zM170.667 725.334c-47.128 0-85.333-38.205-85.333-85.333v0-725.333c0-23.564 19.103-42.667 42.667-42.667v0c0.041 0 0.089 0 0.137 0 8.323 0 16.090 2.383 22.654 6.504l-0.178-0.104 253.44 158.72c6.418 4.070 14.234 6.485 22.613 6.485s16.195-2.416 22.788-6.589l-0.175 0.103 253.44-158.72c6.387-4.017 14.153-6.4 22.476-6.4 0.048 0 0.096 0 0.144 0h-0.007c23.564 0 42.667 19.103 42.667 42.667v0 725.333c0 47.128-38.205 85.333-85.333 85.333v0zM896-42.666c23.564 0 42.667 19.103 42.667 42.667v0 597.333c0 23.564-19.103 42.667-42.667 42.667v0h-42.667v-682.667z" />
<glyph unicode="&#xe90d;" glyph-name="bookmarks" d="M768-85.333c0-0.025 0-0.055 0-0.085 0-23.564-19.103-42.667-42.667-42.667-8.38 0-16.195 2.416-22.788 6.589l0.175-0.103-253.44 158.72c-6.418 4.070-14.234 6.485-22.613 6.485s-16.195-2.416-22.788-6.589l0.175 0.103-253.44-158.72c-6.418-4.070-14.234-6.485-22.613-6.485-23.564 0-42.667 19.103-42.667 42.667 0 0.030 0 0.060 0 0.090v-0.005 725.333c0 47.128 38.205 85.333 85.333 85.333v0h512c47.128 0 85.333-38.205 85.333-85.333v0zM896 640h-42.667v-682.667h42.667c23.564 0 42.667 19.103 42.667 42.667v0 597.333c0 23.564-19.103 42.667-42.667 42.667v0z" />
<glyph unicode="&#xe90e;" glyph-name="browser_window" d="M853.333 469.334v-426.667h-682.667v426.667zM853.333 640h-682.667c-47.128 0-85.333-38.205-85.333-85.333v0-512c0-47.128 38.205-85.333 85.333-85.333v0h682.667c47.128 0 85.333 38.205 85.333 85.333v0 512c0 47.128-38.205 85.333-85.333 85.333v0z" />
<glyph unicode="&#xe90f;" glyph-name="browser_windows" d="M810.667 170.667v426.667c0 47.128-38.205 85.333-85.333 85.333v0h-597.333c-47.128 0-85.333-38.205-85.333-85.333v0-426.667c0-47.128 38.205-85.333 85.333-85.333v0h597.333c47.128 0 85.333 38.205 85.333 85.333v0zM128 512h597.333v-341.333h-597.333zM896 512v-426.667c0-47.128-38.205-85.333-85.333-85.333v0h-597.333c0-47.128 38.205-85.333 85.333-85.333v0h512c94.257 0 170.667 76.41 170.667 170.667v0 341.333c0 47.128-38.205 85.333-85.333 85.333v0z" />
<glyph unicode="&#xe910;" glyph-name="cached" d="M974.933 313.6l-8.533-8.533c-3.809-3.949-9.146-6.402-15.057-6.402-0.107 0-0.213 0.001-0.319 0.002h-97.691c-0.199-188.363-152.943-340.983-341.333-340.983-62.838 0-121.71 16.98-172.277 46.602l1.611-0.872c-5.471 3.45-9.289 9.095-10.226 15.668l-0.014 0.118c-0.127 0.875-0.2 1.884-0.2 2.911 0 5.853 2.357 11.156 6.175 15.011l31.145 31.145c3.869 3.91 9.236 6.332 15.168 6.332 3.662 0 7.108-0.922 10.119-2.548l-0.113 0.056c34.348-18.543 75.18-29.44 118.557-29.44 0.020 0 0.040 0 0.059 0h-0.003c141.385 0 256 114.615 256 256v0h-100.693c-0.090-0.001-0.197-0.002-0.303-0.002-5.911 0-11.248 2.453-15.051 6.396l-8.539 8.539c-3.898 3.867-6.31 9.225-6.31 15.147s2.413 11.28 6.309 15.145l0.001 0.001 150.613 151.040c3.912 3.797 9.256 6.137 15.147 6.137s11.234-2.341 15.152-6.142l-0.005 0.005 150.613-151.040c3.898-3.867 6.31-9.225 6.31-15.147s-2.413-11.28-6.309-15.145l-0.001-0.001zM380.587 283.734l-8.533 8.533c-3.809 3.949-9.146 6.402-15.057 6.402-0.107 0-0.213-0.001-0.319-0.002h-100.677c0 141.385 114.615 256 256 256v0c0.255 0.001 0.556 0.001 0.858 0.001 43.3 0 84.015-11.063 119.475-30.518l-1.292 0.649c2.885-1.51 6.302-2.396 9.926-2.396 5.94 0 11.324 2.38 15.251 6.239l31.57 31.57c3.815 3.853 6.173 9.156 6.173 15.009 0 1.027-0.073 2.036-0.213 3.024l0.013-0.113c-1.15 6.827-5.282 12.503-10.983 15.729l-0.11 0.057c-48.957 28.75-107.829 45.73-170.667 45.73-188.39 0-341.134-152.621-341.333-340.965v-0.019h-97.707c-0.090 0.001-0.197 0.002-0.303 0.002-5.911 0-11.248-2.453-15.051-6.396l-8.539-8.539c-3.898-3.867-6.31-9.225-6.31-15.147s2.413-11.28 6.309-15.145l0.001-0.001 150.613-151.040c3.912-3.797 9.256-6.137 15.147-6.137s11.234 2.341 15.152 6.142l-0.005-0.005 150.613 151.040c3.898 3.867 6.31 9.225 6.31 15.147s-2.413 11.28-6.309 15.145l-0.001 0.001z" />
<glyph unicode="&#xe911;" glyph-name="calendar_month" d="M810.667 640h-42.667v64c0 11.782-9.551 21.333-21.333 21.333v0h-42.667c-11.782 0-21.333-9.551-21.333-21.333v0-64h-341.333v64c0 11.782-9.551 21.333-21.333 21.333v0h-42.667c-11.782 0-21.333-9.551-21.333-21.333v0-64h-42.667c-47.128 0-85.333-38.205-85.333-85.333v0-554.667c0-47.128 38.205-85.333 85.333-85.333v0h597.333c47.128 0 85.333 38.205 85.333 85.333v0 554.667c0 47.128-38.205 85.333-85.333 85.333v0zM810.667-0h-597.333v469.333h597.333zM490.667 298.667h42.667c11.782 0 21.333 9.551 21.333 21.333v0 42.667c0 11.782-9.551 21.333-21.333 21.333v0h-42.667c-11.782 0-21.333-9.551-21.333-21.333v0-42.667c0-11.782 9.551-21.333 21.333-21.333v0zM661.333 298.667h42.667c11.782 0 21.333 9.551 21.333 21.333v0 42.667c0 11.782-9.551 21.333-21.333 21.333v0h-42.667c-11.782 0-21.333-9.551-21.333-21.333v0-42.667c0-11.782 9.551-21.333 21.333-21.333v0zM320 298.667h42.667c11.782 0 21.333 9.551 21.333 21.333v0 42.667c0 11.782-9.551 21.333-21.333 21.333v0h-42.667c-11.782 0-21.333-9.551-21.333-21.333v0-42.667c0-11.782 9.551-21.333 21.333-21.333v0zM490.667 128h42.667c11.782 0 21.333 9.551 21.333 21.333v0 42.667c0 11.782-9.551 21.333-21.333 21.333v0h-42.667c-11.782 0-21.333-9.551-21.333-21.333v0-42.667c0-11.782 9.551-21.333 21.333-21.333v0zM320 128h42.667c11.782 0 21.333 9.551 21.333 21.333v0 42.667c0 11.782-9.551 21.333-21.333 21.333v0h-42.667c-11.782 0-21.333-9.551-21.333-21.333v0-42.667c0-11.782 9.551-21.333 21.333-21.333v0z" />
<glyph unicode="&#xe912;" glyph-name="calendar_note" d="M810.667 640h-42.667v64c0 11.782-9.551 21.333-21.333 21.333v0h-42.667c-11.782 0-21.333-9.551-21.333-21.333v0-64h-341.333v64c0 11.782-9.551 21.333-21.333 21.333v0h-42.667c-11.782 0-21.333-9.551-21.333-21.333v0-64h-42.667c-47.128 0-85.333-38.205-85.333-85.333v0-554.667c0-47.128 38.205-85.333 85.333-85.333v0h597.333c47.128 0 85.333 38.205 85.333 85.333v0 554.667c0 47.128-38.205 85.333-85.333 85.333v0zM810.667-0h-597.333v469.333h597.333zM320 128h213.333c11.782 0 21.333 9.551 21.333 21.333v0 42.667c0 11.782-9.551 21.333-21.333 21.333v0h-213.333c-11.782 0-21.333-9.551-21.333-21.333v0-42.667c0-11.782 9.551-21.333 21.333-21.333v0zM320 298.667h384c11.782 0 21.333 9.551 21.333 21.333v0 42.667c0 11.782-9.551 21.333-21.333 21.333v0h-384c-11.782 0-21.333-9.551-21.333-21.333v0-42.667c0-11.782 9.551-21.333 21.333-21.333v0z" />
<glyph unicode="&#xe913;" glyph-name="calendar" d="M810.667 640h-42.667v64c0 11.782-9.551 21.333-21.333 21.333v0h-42.667c-11.782 0-21.333-9.551-21.333-21.333v0-64h-341.333v64c0 11.782-9.551 21.333-21.333 21.333v0h-42.667c-11.782 0-21.333-9.551-21.333-21.333v0-64h-42.667c-47.128 0-85.333-38.205-85.333-85.333v0-554.667c0-47.128 38.205-85.333 85.333-85.333v0h597.333c47.128 0 85.333 38.205 85.333 85.333v0 554.667c0 47.128-38.205 85.333-85.333 85.333v0zM810.667-0h-597.333v469.333h597.333z" />
<glyph unicode="&#xe914;" glyph-name="carousel_horizontal_outlined" d="M682.667 554.667v-512h-341.333v512h341.333zM682.667 640h-341.333c-47.128 0-85.333-38.205-85.333-85.333v0-512c0-47.128 38.205-85.333 85.333-85.333v0h341.333c47.128 0 85.333 38.205 85.333 85.333v0 512c0 47.128-38.205 85.333-85.333 85.333v0zM896 42.667c23.564 0 42.667 19.103 42.667 42.667v0 426.667c0 23.564-19.103 42.667-42.667 42.667v0h-42.667v-512zM128 554.667c-23.564 0-42.667-19.103-42.667-42.667v0-426.667c0-23.564 19.103-42.667 42.667-42.667v0h42.667v512z" />
<glyph unicode="&#xe915;" glyph-name="carousel_horizontal" d="M768 42.667v512c0 47.128-38.205 85.333-85.333 85.333v0h-341.333c-47.128 0-85.333-38.205-85.333-85.333v0-512c0-47.128 38.205-85.333 85.333-85.333v0h341.333c47.128 0 85.333 38.205 85.333 85.333v0zM896 42.667c23.564 0 42.667 19.103 42.667 42.667v0 426.667c0 23.564-19.103 42.667-42.667 42.667v0h-42.667v-512zM128 554.667c-23.564 0-42.667-19.103-42.667-42.667v0-426.667c0-23.564 19.103-42.667 42.667-42.667v0h42.667v512z" />
<glyph unicode="&#xe916;" glyph-name="carousel_vertical_outlined" d="M768 469.334v-341.333h-512v341.333h512zM768 554.667h-512c-47.128 0-85.333-38.205-85.333-85.333v0-341.333c0-47.128 38.205-85.333 85.333-85.333v0h512c47.128 0 85.333 38.205 85.333 85.333v0 341.333c0 47.128-38.205 85.333-85.333 85.333v0zM768 682.667c0 23.564-19.103 42.667-42.667 42.667v0h-426.667c-23.564 0-42.667-19.103-42.667-42.667v0-42.667h512zM256-85.333c0-23.564 19.103-42.667 42.667-42.667v0h426.667c23.564 0 42.667 19.103 42.667 42.667v0 42.667h-512z" />
<glyph unicode="&#xe917;" glyph-name="carousel_vertical" d="M768 554.667h-512c-47.128 0-85.333-38.205-85.333-85.333v0-341.333c0-47.128 38.205-85.333 85.333-85.333v0h512c47.128 0 85.333 38.205 85.333 85.333v0 341.333c0 47.128-38.205 85.333-85.333 85.333v0zM768 682.667c0 23.564-19.103 42.667-42.667 42.667v0h-426.667c-23.564 0-42.667-19.103-42.667-42.667v0-42.667h512zM256-85.333c0-23.564 19.103-42.667 42.667-42.667v0h426.667c23.564 0 42.667 19.103 42.667 42.667v0 42.667h-512z" />
<glyph unicode="&#xe918;" glyph-name="checkmark_circle_outlined" d="M512 725.334c-235.641 0-426.667-191.025-426.667-426.667s191.025-426.667 426.667-426.667c235.641 0 426.667 191.025 426.667 426.667v0c0 235.641-191.025 426.667-426.667 426.667v0zM512-42.666c-188.513 0-341.333 152.82-341.333 341.333s152.82 341.333 341.333 341.333c188.513 0 341.333-152.82 341.333-341.333v0c0-188.513-152.82-341.333-341.333-341.333v0zM674.987 448.427c-3.845 3.771-9.117 6.098-14.933 6.098s-11.088-2.327-14.937-6.102l-202.237-202.237-64 63.573c-3.745 3.984-9.050 6.465-14.933 6.465s-11.188-2.481-14.923-6.454l-0.010-0.011-22.613-22.613c-3.898-3.867-6.31-9.225-6.31-15.147s2.413-11.28 6.309-15.145l0.001-0.001 100.267-101.12c3.745-3.984 9.050-6.465 14.933-6.465s11.188 2.481 14.923 6.454l0.010 0.011 239.787 239.787c3.898 3.867 6.31 9.225 6.31 15.147s-2.413 11.28-6.309 15.145l-0.001 0.001z" />
<glyph unicode="&#xe919;" glyph-name="checkmark_circle" d="M512 725.334c-235.641 0-426.667-191.025-426.667-426.667s191.025-426.667 426.667-426.667c235.641 0 426.667 191.025 426.667 426.667v0c0 235.641-191.025 426.667-426.667 426.667v0zM697.6 395.52l-239.787-239.787c-3.745-3.984-9.050-6.465-14.933-6.465s-11.188 2.481-14.923 6.454l-0.010 0.011-101.547 100.267c-3.898 3.867-6.31 9.225-6.31 15.147s2.413 11.28 6.309 15.145l22.614 22.614c3.745 3.984 9.050 6.465 14.933 6.465s11.188-2.481 14.923-6.454l0.010-0.011 64-63.573 202.24 202.24c3.845 3.771 9.117 6.098 14.933 6.098s11.088-2.327 14.937-6.102l22.61-22.61c3.647-3.821 5.892-9.008 5.892-14.72s-2.245-10.899-5.9-14.728l0.008 0.008z" />
<glyph unicode="&#xe91a;" glyph-name="checkmark_square_outlined" d="M810.667 682.667h-597.333c-47.128 0-85.333-38.205-85.333-85.333v0-597.333c0-47.128 38.205-85.333 85.333-85.333v0h597.333c47.128 0 85.333 38.205 85.333 85.333v0 597.333c0 47.128-38.205 85.333-85.333 85.333v0zM810.667-0h-597.333v597.333h597.333zM426.667 155.734c3.745-3.984 9.050-6.465 14.933-6.465s11.188 2.481 14.923 6.454l0.010 0.011 239.787 239.787c3.898 3.867 6.31 9.225 6.31 15.147s-2.413 11.28-6.309 15.145l-22.614 22.614c-3.845 3.771-9.117 6.098-14.933 6.098s-11.088-2.327-14.937-6.102l-202.237-202.237-64 63.573c-3.745 3.984-9.050 6.465-14.933 6.465s-11.188-2.481-14.923-6.454l-0.010-0.011-22.613-22.613c-3.898-3.867-6.31-9.225-6.31-15.147s2.413-11.28 6.309-15.145l0.001-0.001z" />
<glyph unicode="&#xe91b;" glyph-name="checkmark_square" d="M810.667 682.667h-597.333c-47.128 0-85.333-38.205-85.333-85.333v0-597.333c0-47.128 38.205-85.333 85.333-85.333v0h597.333c47.128 0 85.333 38.205 85.333 85.333v0 597.333c0 47.128-38.205 85.333-85.333 85.333v0zM697.6 395.52l-239.787-239.787c-3.745-3.984-9.050-6.465-14.933-6.465s-11.188 2.481-14.923 6.454l-0.010 0.011-101.547 100.267c-3.898 3.867-6.31 9.225-6.31 15.147s2.413 11.28 6.309 15.145l22.614 22.614c3.745 3.984 9.050 6.465 14.933 6.465s11.188-2.481 14.923-6.454l0.010-0.011 64-63.573 202.24 202.24c3.845 3.771 9.117 6.098 14.933 6.098s11.088-2.327 14.937-6.102l22.61-22.61c3.647-3.821 5.892-9.008 5.892-14.72s-2.245-10.899-5.9-14.728l0.008 0.008z" />
<glyph unicode="&#xe91c;" glyph-name="clear_circle_outlined" d="M512 725.334c-235.641 0-426.667-191.025-426.667-426.667s191.025-426.667 426.667-426.667c235.641 0 426.667 191.025 426.667 426.667v0c0 235.641-191.025 426.667-426.667 426.667v0zM512-42.666c-188.513 0-341.333 152.82-341.333 341.333s152.82 341.333 341.333 341.333c188.513 0 341.333-152.82 341.333-341.333v0c0-188.513-152.82-341.333-341.333-341.333v0zM643.84 407.894l-22.613 22.613c-3.745 3.984-9.050 6.465-14.933 6.465s-11.188-2.481-14.923-6.454l-0.010-0.011-79.36-78.933-79.36 78.933c-3.745 3.984-9.050 6.465-14.933 6.465s-11.188-2.481-14.923-6.454l-0.010-0.011-22.613-22.613c-3.984-3.745-6.465-9.050-6.465-14.933s2.481-11.188 6.454-14.923l0.011-0.010 78.933-79.36-78.933-79.36c-3.984-3.745-6.465-9.050-6.465-14.933s2.481-11.188 6.454-14.923l0.011-0.010 22.613-22.613c3.745-3.984 9.050-6.465 14.933-6.465s11.188 2.481 14.923 6.454l0.010 0.011 79.36 78.933 79.36-78.933c3.745-3.984 9.050-6.465 14.933-6.465s11.188 2.481 14.923 6.454l0.010 0.011 22.613 22.613c3.984 3.745 6.465 9.050 6.465 14.933s-2.481 11.188-6.454 14.923l-0.011 0.010-78.933 79.36 78.933 79.36c3.984 3.745 6.465 9.050 6.465 14.933s-2.481 11.188-6.454 14.923l-0.011 0.010z" />
<glyph unicode="&#xe91d;" glyph-name="clear_circle" d="M512 725.334c-235.641 0-426.667-191.025-426.667-426.667s191.025-426.667 426.667-426.667c235.641 0 426.667 191.025 426.667 426.667v0c0 235.641-191.025 426.667-426.667 426.667v0zM643.84 219.307c3.984-3.745 6.465-9.050 6.465-14.933s-2.481-11.188-6.454-14.923l-0.011-0.010-22.613-22.613c-3.745-3.984-9.050-6.465-14.933-6.465s-11.188 2.481-14.923 6.454l-0.010 0.011-79.36 78.933-79.36-78.933c-3.745-3.984-9.050-6.465-14.933-6.465s-11.188 2.481-14.923 6.454l-0.010 0.011-22.613 22.613c-3.984 3.745-6.465 9.050-6.465 14.933s2.481 11.188 6.454 14.923l0.011 0.010 78.933 79.36-78.933 79.36c-3.984 3.745-6.465 9.050-6.465 14.933s2.481 11.188 6.454 14.923l0.011 0.010 22.613 22.613c3.745 3.984 9.050 6.465 14.933 6.465s11.188-2.481 14.923-6.454l0.010-0.011 79.36-78.933 79.36 78.933c3.745 3.984 9.050 6.465 14.933 6.465s11.188-2.481 14.923-6.454l0.010-0.011 22.613-22.613c3.984-3.745 6.465-9.050 6.465-14.933s-2.481-11.188-6.454-14.923l-0.011-0.010-78.933-79.36z" />
<glyph unicode="&#xe91e;" glyph-name="clear_square_outlined" d="M810.667 682.667h-597.333c-47.128 0-85.333-38.205-85.333-85.333v0-597.333c0-47.128 38.205-85.333 85.333-85.333v0h597.333c47.128 0 85.333 38.205 85.333 85.333v0 597.333c0 47.128-38.205 85.333-85.333 85.333v0zM810.667-0h-597.333v597.333h597.333zM380.16 189.44l22.613-22.613c3.745-3.984 9.050-6.465 14.933-6.465s11.188 2.481 14.923 6.454l0.010 0.011 79.36 78.933 79.36-78.933c3.745-3.984 9.050-6.465 14.933-6.465s11.188 2.481 14.923 6.454l0.010 0.011 22.613 22.613c3.984 3.745 6.465 9.050 6.465 14.933s-2.481 11.188-6.454 14.923l-0.011 0.010-78.933 79.36 78.933 79.36c3.984 3.745 6.465 9.050 6.465 14.933s-2.481 11.188-6.454 14.923l-0.011 0.010-22.613 22.613c-3.745 3.984-9.050 6.465-14.933 6.465s-11.188-2.481-14.923-6.454l-0.010-0.011-79.36-78.933-79.36 78.933c-3.745 3.984-9.050 6.465-14.933 6.465s-11.188-2.481-14.923-6.454l-0.010-0.011-22.613-22.613c-3.984-3.745-6.465-9.050-6.465-14.933s2.481-11.188 6.454-14.923l0.011-0.010 78.933-79.36-78.933-79.36c-3.984-3.745-6.465-9.050-6.465-14.933s2.481-11.188 6.454-14.923l0.011-0.010z" />
<glyph unicode="&#xe91f;" glyph-name="clear_square" d="M810.667 682.667h-597.333c-47.128 0-85.333-38.205-85.333-85.333v0-597.333c0-47.128 38.205-85.333 85.333-85.333v0h597.333c47.128 0 85.333 38.205 85.333 85.333v0 597.333c0 47.128-38.205 85.333-85.333 85.333v0zM643.84 219.307c3.984-3.745 6.465-9.050 6.465-14.933s-2.481-11.188-6.454-14.923l-0.011-0.010-22.613-22.613c-3.745-3.984-9.050-6.465-14.933-6.465s-11.188 2.481-14.923 6.454l-0.010 0.011-79.36 78.933-79.36-78.933c-3.745-3.984-9.050-6.465-14.933-6.465s-11.188 2.481-14.923 6.454l-0.010 0.011-22.613 22.613c-3.984 3.745-6.465 9.050-6.465 14.933s2.481 11.188 6.454 14.923l0.011 0.010 78.933 79.36-78.933 79.36c-3.984 3.745-6.465 9.050-6.465 14.933s2.481 11.188 6.454 14.923l0.011 0.010 22.613 22.613c3.745 3.984 9.050 6.465 14.933 6.465s11.188-2.481 14.923-6.454l0.010-0.011 79.36-78.933 79.36 78.933c3.745 3.984 9.050 6.465 14.933 6.465s11.188-2.481 14.923-6.454l0.010-0.011 22.613-22.613c3.984-3.745 6.465-9.050 6.465-14.933s-2.481-11.188-6.454-14.923l-0.011-0.010-78.933-79.36z" />
<glyph unicode="&#xe920;" glyph-name="clear" d="M761.6 109.227c3.898-3.867 6.31-9.225 6.31-15.147s-2.413-11.28-6.309-15.145l-29.868-29.868c-3.867-3.898-9.225-6.31-15.147-6.31s-11.28 2.413-15.145 6.309l-189.441 189.441-189.44-189.44c-3.867-3.898-9.225-6.31-15.147-6.31s-11.28 2.413-15.145 6.309l-29.868 29.868c-3.898 3.867-6.31 9.225-6.31 15.147s2.413 11.28 6.309 15.145l189.441 189.441-189.44 189.44c-3.898 3.867-6.31 9.225-6.31 15.147s2.413 11.28 6.309 15.145l29.868 29.868c3.867 3.898 9.225 6.31 15.147 6.31s11.28-2.413 15.145-6.309l189.441-189.441 189.44 189.44c3.867 3.898 9.225 6.31 15.147 6.31s11.28-2.413 15.145-6.309l29.868-29.868c3.898-3.867 6.31-9.225 6.31-15.147s-2.413-11.28-6.309-15.145l-189.441-189.441z" />
<glyph unicode="&#xe921;" glyph-name="column_view_outlined" d="M853.333 554.667v-512h-213.333v512h213.333zM853.333 640h-213.333c-47.128 0-85.333-38.205-85.333-85.333v0-512c0-47.128 38.205-85.333 85.333-85.333v0h213.333c47.128 0 85.333 38.205 85.333 85.333v0 512c0 47.128-38.205 85.333-85.333 85.333v0zM384 554.667v-512h-213.333v512h213.333zM384 640h-213.333c-47.128 0-85.333-38.205-85.333-85.333v0-512c0-47.128 38.205-85.333 85.333-85.333v0h213.333c47.128 0 85.333 38.205 85.333 85.333v0 512c0 47.128-38.205 85.333-85.333 85.333v0z" />
<glyph unicode="&#xe922;" glyph-name="column_view" d="M938.667 42.667v512c0 47.128-38.205 85.333-85.333 85.333v0h-213.333c-47.128 0-85.333-38.205-85.333-85.333v0-512c0-47.128 38.205-85.333 85.333-85.333v0h213.333c47.128 0 85.333 38.205 85.333 85.333v0zM384-42.666h-213.333c-47.128 0-85.333 38.205-85.333 85.333v0 512c0 47.128 38.205 85.333 85.333 85.333v0h213.333c47.128 0 85.333-38.205 85.333-85.333v0-512c0-47.128-38.205-85.333-85.333-85.333v0z" />
<glyph unicode="&#xe923;" glyph-name="command_outlined" d="M810.667 682.667h-597.333c-47.128 0-85.333-38.205-85.333-85.333v0-597.333c0-47.128 38.205-85.333 85.333-85.333v0h597.333c47.128 0 85.333 38.205 85.333 85.333v0 597.333c0 47.128-38.205 85.333-85.333 85.333v0zM810.667-0h-597.333v597.333h597.333zM623.787 462.934c3.745 3.984 9.050 6.465 14.933 6.465s11.188-2.481 14.923-6.454l0.010-0.011 22.613-22.613c3.984-3.745 6.465-9.050 6.465-14.933s-2.481-11.188-6.454-14.923l-0.011-0.010-276.053-276.053c-3.745-3.984-9.050-6.465-14.933-6.465s-11.188 2.481-14.923 6.454l-0.010 0.011-22.613 22.613c-3.984 3.745-6.465 9.050-6.465 14.933s2.481 11.188 6.454 14.923l0.011 0.010z" />
<glyph unicode="&#xe924;" glyph-name="command" d="M810.667 682.667h-597.333c-47.128 0-85.333-38.205-85.333-85.333v0-597.333c0-47.128 38.205-85.333 85.333-85.333v0h597.333c47.128 0 85.333 38.205 85.333 85.333v0 597.333c0 47.128-38.205 85.333-85.333 85.333v0zM676.267 410.454l-276.053-276.053c-3.745-3.984-9.050-6.465-14.933-6.465s-11.188 2.481-14.923 6.454l-0.010 0.011-22.613 22.613c-3.984 3.745-6.465 9.050-6.465 14.933s2.481 11.188 6.454 14.923l0.011 0.010 276.053 276.053c3.745 3.984 9.050 6.465 14.933 6.465s11.188-2.481 14.923-6.454l0.010-0.011 22.613-22.613c3.984-3.745 6.465-9.050 6.465-14.933s-2.481-11.188-6.454-14.923l-0.011-0.010z" />
<glyph unicode="&#xe925;" glyph-name="date_range" d="M896 554.667c0 47.128-38.205 85.333-85.333 85.333v0h-42.667v64c0 11.782-9.551 21.333-21.333 21.333v0h-42.667c-11.782 0-21.333-9.551-21.333-21.333v0-64h-341.333v64c0 11.782-9.551 21.333-21.333 21.333v0h-42.667c-11.782 0-21.333-9.551-21.333-21.333v0-64h-42.667c-47.128 0-85.333-38.205-85.333-85.333v0-554.667c0-47.128 38.205-85.333 85.333-85.333v0h597.333c47.128 0 85.333 38.205 85.333 85.333v0zM810.667-0h-597.333v469.333h597.333zM490.667 384c-11.782 0-21.333-9.551-21.333-21.333v0-42.667c0-11.782 9.551-21.333 21.333-21.333v0h213.333c11.782 0 21.333 9.551 21.333 21.333v0 42.667c0 11.782-9.551 21.333-21.333 21.333v0zM320 298.667h42.667c11.782 0 21.333 9.551 21.333 21.333v0 42.667c0 11.782-9.551 21.333-21.333 21.333v0h-42.667c-11.782 0-21.333-9.551-21.333-21.333v0-42.667c0-11.782 9.551-21.333 21.333-21.333v0zM533.333 128c11.782 0 21.333 9.551 21.333 21.333v0 42.667c0 11.782-9.551 21.333-21.333 21.333v0h-213.333c-11.782 0-21.333-9.551-21.333-21.333v0-42.667c0-11.782 9.551-21.333 21.333-21.333v0zM640 149.334c0-11.782 9.551-21.333 21.333-21.333v0h42.667c11.782 0 21.333 9.551 21.333 21.333v0 42.667c0 11.782-9.551 21.333-21.333 21.333v0h-42.667c-11.782 0-21.333-9.551-21.333-21.333v0z" />
<glyph unicode="&#xe926;" glyph-name="done" d="M846.933 501.334l-452.267-452.267c-3.867-3.898-9.225-6.31-15.147-6.31s-11.28 2.413-15.145 6.309l-229.974 229.974c-3.898 3.867-6.31 9.225-6.31 15.147s2.413 11.28 6.309 15.145l29.868 29.868c3.867 3.898 9.225 6.31 15.147 6.31s11.28-2.413 15.145-6.309l184.748-184.748 407.467 407.467c3.912 3.797 9.256 6.137 15.147 6.137s11.234-2.341 15.152-6.142l-0.005 0.005 29.867-30.293c3.898-3.867 6.31-9.225 6.31-15.147s-2.413-11.28-6.309-15.145l-0.001-0.001z" />
<glyph unicode="&#xe927;" glyph-name="drag" d="M469.333 554.667c0-47.128-38.205-85.333-85.333-85.333s-85.333 38.205-85.333 85.333c0 47.128 38.205 85.333 85.333 85.333v0c47.128 0 85.333-38.205 85.333-85.333v0zM384 384c-47.128 0-85.333-38.205-85.333-85.333s38.205-85.333 85.333-85.333c47.128 0 85.333 38.205 85.333 85.333v0c0 47.128-38.205 85.333-85.333 85.333v0zM384 128c-47.128 0-85.333-38.205-85.333-85.333s38.205-85.333 85.333-85.333c47.128 0 85.333 38.205 85.333 85.333v0c0 47.128-38.205 85.333-85.333 85.333v0zM640 469.334c47.128 0 85.333 38.205 85.333 85.333s-38.205 85.333-85.333 85.333c-47.128 0-85.333-38.205-85.333-85.333v0c0-47.128 38.205-85.333 85.333-85.333v0zM640 384c-47.128 0-85.333-38.205-85.333-85.333s38.205-85.333 85.333-85.333c47.128 0 85.333 38.205 85.333 85.333v0c0 47.128-38.205 85.333-85.333 85.333v0zM640 128c-47.128 0-85.333-38.205-85.333-85.333s38.205-85.333 85.333-85.333c47.128 0 85.333 38.205 85.333 85.333v0c0 47.128-38.205 85.333-85.333 85.333v0z" />
<glyph unicode="&#xe928;" glyph-name="eject_circle_outlined" d="M512 725.334c-235.641 0-426.667-191.025-426.667-426.667s191.025-426.667 426.667-426.667c235.641 0 426.667 191.025 426.667 426.667v0c0 235.641-191.025 426.667-426.667 426.667v0zM512-42.666c-188.513 0-341.333 152.82-341.333 341.333s152.82 341.333 341.333 341.333c188.513 0 341.333-152.82 341.333-341.333v0c0-188.513-152.82-341.333-341.333-341.333v0zM704 213.334h-384c-11.782 0-21.333-9.551-21.333-21.333v0-42.667c0-11.782 9.551-21.333 21.333-21.333v0h384c11.782 0 21.333 9.551 21.333 21.333v0 42.667c0 11.782-9.551 21.333-21.333 21.333v0zM526.933 548.267c-3.745 3.984-9.050 6.465-14.933 6.465s-11.188-2.481-14.923-6.454l-0.010-0.011-192-204.373c-3.898-3.867-6.31-9.225-6.31-15.147s2.413-11.28 6.309-15.145l8.534-8.534c3.809-3.949 9.146-6.402 15.057-6.402 0.107 0 0.213 0.001 0.319 0.002h366.064c0.090-0.001 0.197-0.002 0.303-0.002 5.911 0 11.248 2.453 15.051 6.396l8.539 8.539c3.898 3.867 6.31 9.225 6.31 15.147s-2.413 11.28-6.309 15.145l-0.001 0.001z" />
<glyph unicode="&#xe929;" glyph-name="eject_circle" d="M512 725.334c-235.641 0-426.667-191.025-426.667-426.667s191.025-426.667 426.667-426.667c235.641 0 426.667 191.025 426.667 426.667v0c0 235.641-191.025 426.667-426.667 426.667v0zM725.333 149.334c0-11.782-9.551-21.333-21.333-21.333v0h-384c-11.782 0-21.333 9.551-21.333 21.333v0 42.667c0 11.782 9.551 21.333 21.333 21.333v0h384c11.782 0 21.333-9.551 21.333-21.333v0zM718.933 313.6l-8.533-8.533c-3.809-3.949-9.146-6.402-15.057-6.402-0.107 0-0.213 0.001-0.319 0.002h-366.064c-0.090-0.001-0.197-0.002-0.303-0.002-5.911 0-11.248 2.453-15.051 6.396l-8.539 8.539c-3.898 3.867-6.31 9.225-6.31 15.147s2.413 11.28 6.309 15.145l0.001 0.001 192 204.373c3.745 3.984 9.050 6.465 14.933 6.465s11.188-2.481 14.923-6.454l0.010-0.011 192-204.373c3.898-3.867 6.31-9.225 6.31-15.147s-2.413-11.28-6.309-15.145l-0.001-0.001z" />
<glyph unicode="&#xe92a;" glyph-name="eject" d="M810.667 106.667v-42.667c0-11.782-9.551-21.333-21.333-21.333v0h-554.667c-11.782 0-21.333 9.551-21.333 21.333v0 42.667c0 11.782 9.551 21.333 21.333 21.333v0h554.667c11.782 0 21.333-9.551 21.333-21.333v0zM228.267 219.734c3.809-3.949 9.146-6.402 15.057-6.402 0.107 0 0.213 0.001 0.319 0.002h536.731c0.090-0.001 0.197-0.002 0.303-0.002 5.911 0 11.248 2.453 15.051 6.396l8.539 8.539c3.898 3.867 6.31 9.225 6.31 15.147s-2.413 11.28-6.309 15.145l-0.001 0.001-277.333 289.707c-3.745 3.984-9.050 6.465-14.933 6.465s-11.188-2.481-14.923-6.454l-0.010-0.011-277.333-289.707c-3.898-3.867-6.31-9.225-6.31-15.147s2.413-11.28 6.309-15.145l0.001-0.001z" />
<glyph unicode="&#xe92b;" glyph-name="event" d="M896 554.667c0 47.128-38.205 85.333-85.333 85.333v0h-42.667v64c0 11.782-9.551 21.333-21.333 21.333v0h-42.667c-11.782 0-21.333-9.551-21.333-21.333v0-64h-341.333v64c0 11.782-9.551 21.333-21.333 21.333v0h-42.667c-11.782 0-21.333-9.551-21.333-21.333v0-64h-42.667c-47.128 0-85.333-38.205-85.333-85.333v0-554.667c0-47.128 38.205-85.333 85.333-85.333v0h597.333c47.128 0 85.333 38.205 85.333 85.333v0zM810.667-0h-597.333v469.333h597.333zM341.333 213.334h85.333c23.564 0 42.667 19.103 42.667 42.667v0 85.333c0 23.564-19.103 42.667-42.667 42.667v0h-85.333c-23.564 0-42.667-19.103-42.667-42.667v0-85.333c0-23.564 19.103-42.667 42.667-42.667v0z" />
<glyph unicode="&#xe92c;" glyph-name="exit_fullscreen_1_1" d="M682.667 426.667h192c11.782 0 21.333 9.551 21.333 21.333v0 42.667c0 11.782-9.551 21.333-21.333 21.333v0h-149.333v149.333c0 11.782-9.551 21.333-21.333 21.333v0h-42.667c-11.782 0-21.333-9.551-21.333-21.333v0-192c0-23.564 19.103-42.667 42.667-42.667v0zM384 469.334v192c0 11.782-9.551 21.333-21.333 21.333v0h-42.667c-11.782 0-21.333-9.551-21.333-21.333v0-149.333h-149.333c-11.782 0-21.333-9.551-21.333-21.333v0-42.667c0-11.782 9.551-21.333 21.333-21.333v0h192c23.564 0 42.667 19.103 42.667 42.667v0zM725.333-64v149.333h149.333c11.782 0 21.333 9.551 21.333 21.333v0 42.667c0 11.782-9.551 21.333-21.333 21.333v0h-192c-23.564 0-42.667-19.103-42.667-42.667v0-192c0-11.782 9.551-21.333 21.333-21.333v0h42.667c11.782 0 21.333 9.551 21.333 21.333v0zM320-85.333h42.667c11.782 0 21.333 9.551 21.333 21.333v0 192c0 23.564-19.103 42.667-42.667 42.667v0h-192c-11.782 0-21.333-9.551-21.333-21.333v0-42.667c0-11.782 9.551-21.333 21.333-21.333v0h149.333v-149.333c0-11.782 9.551-21.333 21.333-21.333v0z" />
<glyph unicode="&#xe92d;" glyph-name="exit_fullscreen_4_3" d="M768 426.667h149.333c11.782 0 21.333 9.551 21.333 21.333v0 42.667c0 11.782-9.551 21.333-21.333 21.333v0h-106.667v106.667c0 11.782-9.551 21.333-21.333 21.333v0h-42.667c-11.782 0-21.333-9.551-21.333-21.333v0-149.333c0-23.564 19.103-42.667 42.667-42.667v0zM256 426.667c23.564 0 42.667 19.103 42.667 42.667v0 149.333c0 11.782-9.551 21.333-21.333 21.333v0h-42.667c-11.782 0-21.333-9.551-21.333-21.333v0-106.667h-106.667c-11.782 0-21.333-9.551-21.333-21.333v0-42.667c0-11.782 9.551-21.333 21.333-21.333v0zM810.667-21.333v106.667h106.667c11.782 0 21.333 9.551 21.333 21.333v0 42.667c0 11.782-9.551 21.333-21.333 21.333v0h-149.333c-23.564 0-42.667-19.103-42.667-42.667v0-149.333c0-11.782 9.551-21.333 21.333-21.333v0h42.667c11.782 0 21.333 9.551 21.333 21.333v0zM234.667-42.666h42.667c11.782 0 21.333 9.551 21.333 21.333v0 149.333c0 23.564-19.103 42.667-42.667 42.667v0h-149.333c-11.782 0-21.333-9.551-21.333-21.333v0-42.667c0-11.782 9.551-21.333 21.333-21.333v0h106.667v-106.667c0-11.782 9.551-21.333 21.333-21.333v0z" />
<glyph unicode="&#xe92e;" glyph-name="exit_fullscreen_16_9" d="M810.667 341.334h149.333c11.782 0 21.333 9.551 21.333 21.333v0 42.667c0 11.782-9.551 21.333-21.333 21.333v0h-106.667v106.667c0 11.782-9.551 21.333-21.333 21.333v0h-42.667c-11.782 0-21.333-9.551-21.333-21.333v0-149.333c0-23.564 19.103-42.667 42.667-42.667v0zM256 384v149.333c0 11.782-9.551 21.333-21.333 21.333v0h-42.667c-11.782 0-21.333-9.551-21.333-21.333v0-106.667h-106.667c-11.782 0-21.333-9.551-21.333-21.333v0-42.667c0-11.782 9.551-21.333 21.333-21.333v0h149.333c23.564 0 42.667 19.103 42.667 42.667v0zM853.333 64v106.667h106.667c11.782 0 21.333 9.551 21.333 21.333v0 42.667c0 11.782-9.551 21.333-21.333 21.333v0h-149.333c-23.564 0-42.667-19.103-42.667-42.667v0-149.333c0-11.782 9.551-21.333 21.333-21.333v0h42.667c11.782 0 21.333 9.551 21.333 21.333v0zM192 42.667h42.667c11.782 0 21.333 9.551 21.333 21.333v0 149.333c0 23.564-19.103 42.667-42.667 42.667v0h-149.333c-11.782 0-21.333-9.551-21.333-21.333v0-42.667c0-11.782 9.551-21.333 21.333-21.333v0h106.667v-106.667c0-11.782 9.551-21.333 21.333-21.333v0z" />
<glyph unicode="&#xe92f;" glyph-name="find_replace" d="M140.373 434.774c-2.905 3.765-4.656 8.55-4.656 13.744 0 1.477 0.142 2.921 0.412 4.319l-0.023-0.142c31.68 133.531 149.907 231.337 290.979 231.337 87.485 0 166.184-37.614 220.808-97.553l0.213-0.237 42.667 42.667c3.833 4.149 9.301 6.739 15.374 6.739 11.546 0 20.907-9.36 20.907-20.907 0-0.269-0.005-0.537-0.015-0.804l0.001 0.038v-165.973c-0.452-11.596-9.737-20.882-21.291-21.332l-0.042-0.001h-167.68c-11.652 0.169-21.034 9.655-21.034 21.331 0 5.817 2.328 11.090 6.104 14.939l-0.003-0.003 62.293 62.72c-39.205 43.391-95.681 70.541-158.497 70.541-97.366 0-179.497-65.227-205.080-154.368l-0.37-1.506c-3.169-8.060-10.883-13.661-19.906-13.661-0.202 0-0.403 0.003-0.604 0.008l0.030-0.001h-42.667c-0.405-0.028-0.879-0.044-1.356-0.044-6.723 0-12.704 3.173-16.529 8.103l-0.036 0.048zM889.6-18.773l-170.667 170.667c-5.419 5.543-11.429 10.469-17.94 14.687l-0.406 0.247-42.667 29.44c27.316 33.376 47.744 73.496 58.459 117.422l0.421 2.044c0.247 1.256 0.389 2.7 0.389 4.176 0 5.194-1.751 9.979-4.695 13.796l0.039-0.053c-3.861 4.952-9.827 8.107-16.53 8.107-0.039 0-0.077 0-0.115 0h-42.661c-9.653 0-17.809-6.412-20.441-15.209l-0.039-0.151c-25.953-90.647-108.084-155.874-205.45-155.874-62.817 0-119.292 27.15-158.332 70.355l-0.165 0.186 62.293 62.72c4.651 3.939 7.583 9.782 7.583 16.311 0 11.782-9.551 21.333-21.333 21.333-0.717 0-1.426-0.035-2.125-0.104l0.088 0.007h-165.973c-11.596-0.452-20.882-9.737-21.332-21.291l-0.001-0.042v-165.547c-0.009-0.228-0.014-0.496-0.014-0.765 0-11.546 9.36-20.907 20.907-20.907 6.073 0 11.542 2.59 15.361 6.725l0.013 0.014 42.667 42.667c54.761-59.381 132.949-96.448 219.794-96.448 70.772 0 135.795 24.616 186.974 65.753l-0.581-0.452 32-42.667c3.983-5.726 8.189-10.746 12.801-15.361l170.666-170.666c3.867-3.898 9.225-6.31 15.147-6.31s11.28 2.413 15.145 6.309l29.868 29.868c3.79 3.848 6.131 9.134 6.131 14.966 0 5.391-2 10.315-5.298 14.071l0.021-0.024z" />
<glyph unicode="&#xe930;" glyph-name="first_page" d="M758.613 78.934l-30.293-29.867c-3.867-3.898-9.225-6.31-15.147-6.31s-11.28 2.413-15.145 6.309l-0.001 0.001-219.307 218.88c-5.793 5.786-9.379 13.78-9.387 22.612v16.215c0.106 8.817 3.668 16.781 9.392 22.619l-0.005-0.005 219.307 218.88c3.867 3.898 9.225 6.31 15.147 6.31s11.28-2.413 15.145-6.309l30.294-30.294c3.874-3.798 6.275-9.085 6.275-14.933s-2.401-11.136-6.272-14.93l-0.003-0.003-189.867-189.44 189.867-189.44c3.898-3.867 6.31-9.225 6.31-15.147s-2.413-11.28-6.309-15.145l-0.001-0.001zM362.667 554.667h-42.667c-11.782 0-21.333-9.551-21.333-21.333v0-469.333c0-11.782 9.551-21.333 21.333-21.333v0h42.667c11.782 0 21.333 9.551 21.333 21.333v0 469.333c0 11.782-9.551 21.333-21.333 21.333v0z" />
<glyph unicode="&#xe931;" glyph-name="hashtag" d="M874.667 469.334h-128l64 185.173c0.717 2.045 1.132 4.402 1.132 6.857 0 11.782-9.551 21.333-21.333 21.333-0.398 0-0.794-0.011-1.187-0.032l0.055 0.002h-46.080c-9.403-0.016-17.407-5.994-20.432-14.355l-0.048-0.152-68.267-198.827h-168.107l63.573 185.173c0.711 2.036 1.122 4.384 1.122 6.827 0 11.727-9.461 21.243-21.167 21.333h-46.089c-9.403-0.016-17.407-5.994-20.432-14.355l-0.048-0.152-68.267-198.827h-160.427c-11.782 0-21.333-9.551-21.333-21.333v0-42.667c0-11.782 9.551-21.333 21.333-21.333v0h131.413l-58.88-170.667h-157.867c-11.782 0-21.333-9.551-21.333-21.333v0-42.667c0-11.782 9.551-21.333 21.333-21.333v0h128l-64-185.173c-0.717-2.045-1.132-4.402-1.132-6.857 0-11.782 9.551-21.333 21.333-21.333 0.398 0 0.794 0.011 1.187 0.032l-0.055-0.002h45.653c9.403 0.016 17.407 5.994 20.432 14.355l0.048 0.152 68.267 198.827h168.533l-63.573-185.173c-0.711-2.036-1.122-4.384-1.122-6.827 0-11.727 9.461-21.243 21.167-21.333h45.662c9.403 0.016 17.407 5.994 20.432 14.355l0.048 0.152 68.267 198.827h160.853c11.782 0 21.333 9.551 21.333 21.333v0 42.667c0 11.782-9.551 21.333-21.333 21.333v0h-131.413l58.453 170.667h158.293c11.782 0 21.333 9.551 21.333 21.333v0 42.667c0 11.782-9.551 21.333-21.333 21.333v0zM566.613 213.334h-168.107l58.453 170.667h168.533z" />
<glyph unicode="&#xe932;" glyph-name="heart_outlined" d="M704 682.667c-76.164-2.446-144.058-35.914-191.814-88.114l-0.186-0.206c-47.942 52.406-115.837 85.874-191.57 88.309l-0.43 0.011c-129.603 0-234.667-105.064-234.667-234.667v0c0-167.253 202.667-352 298.667-448l97.28-97.28c5.786-5.793 13.78-9.379 22.612-9.387h16.215c8.833 0.008 16.828 3.594 22.613 9.386v0l97.28 97.28c96 96 298.667 280.747 298.667 448 0 129.603-105.064 234.667-234.667 234.667v0zM605.867 85.334l-93.867-92.587-93.867 92.587c-86.613 85.333-247.467 244.907-247.467 362.667 0 82.475 66.859 149.333 149.333 149.333v0 0c66.231-6.198 123.035-41.837 157.81-93.53l0.484-0.763c6.053-7.546 15.263-12.344 25.595-12.373h19.205c6.94 0.070 13.093 3.378 17.029 8.483l0.038 0.051c35.862 54.491 94.293 91.614 161.678 98.065l0.882 0.068c0.38 0.003 0.83 0.005 1.28 0.005 82.475 0 149.333-66.859 149.333-149.333 0-0.002 0-0.004 0-0.006v0c0-117.76-160.853-277.333-247.467-362.667z" />
<glyph unicode="&#xe933;" glyph-name="heart" d="M938.667 448c0 129.603-105.064 234.667-234.667 234.667v0c-76.164-2.446-144.058-35.914-191.814-88.114l-0.186-0.206c-47.942 52.406-115.837 85.874-191.57 88.309l-0.43 0.011c-129.603 0-234.667-105.064-234.667-234.667v0c0-167.253 202.667-352 298.667-448l97.28-97.28c5.786-5.793 13.78-9.379 22.612-9.387h16.215c8.833 0.008 16.828 3.594 22.613 9.386v0l97.28 97.28c96 96 298.667 280.747 298.667 448z" />
<glyph unicode="&#xe934;" glyph-name="help_outlined" d="M512 725.334c-235.641 0-426.667-191.025-426.667-426.667s191.025-426.667 426.667-426.667c235.641 0 426.667 191.025 426.667 426.667v0c0 235.641-191.025 426.667-426.667 426.667v0zM512-42.666c-188.513 0-341.333 152.82-341.333 341.333s152.82 341.333 341.333 341.333c188.513 0 341.333-152.82 341.333-341.333v0c0-188.513-152.82-341.333-341.333-341.333v0zM533.333 128h-42.667c-11.782 0-21.333-9.551-21.333-21.333v0-42.667c0-11.782 9.551-21.333 21.333-21.333v0h42.667c11.782 0 21.333 9.551 21.333 21.333v0 42.667c0 11.782-9.551 21.333-21.333 21.333v0zM677.547 426.667c0 67.865-55.015 122.88-122.88 122.88h-85.333c-67.865 0-122.88-55.015-122.88-122.88v0-21.333c0-11.782 9.551-21.333 21.333-21.333v0h32.427c11.782 0 21.333 9.551 21.333 21.333v0 21.333c0 26.392 21.395 47.787 47.787 47.787h85.333c26.392 0 47.787-21.395 47.787-47.787v0-23.893c0-0.029 0-0.063 0-0.098 0-20.973-13.391-38.818-32.090-45.451l-0.337-0.104-40.533-13.227c-32.173-10.868-54.943-40.735-55.040-75.935v-33.292c0-11.782 9.551-21.333 21.333-21.333v0h32.427c11.782 0 21.333 9.551 21.333 21.333v0 33.28c0.21 2.739 2.381 4.91 5.101 5.119l0.019 0.001 40.533 13.227c49.676 16.435 84.955 62.288 85.333 116.435v0.045z" />
<glyph unicode="&#xe935;" glyph-name="help" d="M512 725.334c-235.641 0-426.667-191.025-426.667-426.667s191.025-426.667 426.667-426.667c235.641 0 426.667 191.025 426.667 426.667v0c0 235.641-191.025 426.667-426.667 426.667v0zM554.667 64c0-11.782-9.551-21.333-21.333-21.333v0h-42.667c-11.782 0-21.333 9.551-21.333 21.333v0 42.667c0 11.782 9.551 21.333 21.333 21.333v0h42.667c11.782 0 21.333-9.551 21.333-21.333v0zM677.547 402.774c-0.379-54.192-35.657-100.045-84.462-116.23l-0.871-0.25-37.547-13.227c-2.021-0.858-3.413-2.827-3.413-5.12v0-33.28c0-11.782-9.551-21.333-21.333-21.333v0h-32.427c-11.782 0-21.333 9.551-21.333 21.333v0 33.28c0.097 35.211 22.867 65.079 54.475 75.781l0.565 0.166 40.533 13.227c19.036 6.738 32.427 24.583 32.427 45.556 0 0.034 0 0.069 0 0.103v-0.005 23.893c0 0.009 0 0.020 0 0.030 0 26.392-21.395 47.787-47.787 47.787-0.6 0-1.198-0.011-1.793-0.033l0.086 0.003h-85.333c-26.392 0-47.787-21.395-47.787-47.787v0-21.333c0-11.782-9.551-21.333-21.333-21.333v0h-32.427c-11.782 0-21.333 9.551-21.333 21.333v0 21.333c0 67.865 55.015 122.88 122.88 122.88h85.333c67.865 0 122.88-55.015 122.88-122.88v0z" />
<glyph unicode="&#xe936;" glyph-name="history" d="M938.667 298.667c0-212.077-171.923-384-384-384v0c-0.37-0.001-0.808-0.002-1.246-0.002-82.048 0-158.012 26.051-220.071 70.333l1.156-0.784c-5.009 3.64-8.382 9.269-8.954 15.704l-0.006 0.083c-0.046 0.527-0.073 1.141-0.073 1.76 0 5.79 2.306 11.041 6.051 14.885l-0.005-0.005 30.72 31.147c3.853 3.814 9.154 6.17 15.006 6.17 4.427 0 8.54-1.349 11.949-3.658l-0.075 0.048c46.221-31.531 103.304-50.348 164.781-50.348 0.269 0 0.538 0 0.807 0.001h-0.042c164.949 0 298.667 133.718 298.667 298.667s-133.718 298.667-298.667 298.667c-164.949 0-298.667-133.718-298.667-298.667v0h100.693c0.090 0.001 0.197 0.002 0.303 0.002 5.911 0 11.248-2.453 15.051-6.396l8.539-8.539c3.898-3.867 6.31-9.225 6.31-15.147s-2.413-11.28-6.309-15.145l-0.001-0.001-150.613-151.040c-3.912-3.797-9.256-6.137-15.147-6.137s-11.234 2.341-15.152 6.142l0.005-0.005-150.613 151.040c-3.898 3.867-6.31 9.225-6.31 15.147s2.413 11.28 6.309 15.145l8.534 8.534c3.809 3.949 9.146 6.402 15.057 6.402 0.107 0 0.213-0.001 0.319-0.002h97.691c0 212.077 171.923 384 384 384s384-171.923 384-384v0zM570.88 512h-32.427c-11.782 0-21.333-9.551-21.333-21.333v0-198.827c0.225-5.831 2.624-11.061 6.405-14.938l140.368-140.368c3.867-3.898 9.225-6.31 15.147-6.31s11.28 2.413 15.145 6.309l22.614 22.614c3.898 3.867 6.31 9.225 6.31 15.147s-2.413 11.28-6.309 15.145l-124.588 124.588v176.64c0 11.782-9.551 21.333-21.333 21.333v0z" />
<glyph unicode="&#xe937;" glyph-name="incognito" d="M213.333 494.080l32.427 195.413c3.404 20.448 20.963 35.844 42.118 35.844 0.193 0 0.386-0.001 0.578-0.004h18.744c0.078 0 0.169 0 0.261 0 20.769 0 40.359-5.048 57.611-13.983l-0.699 0.329 72.96-35.413c21.807-10.85 47.495-17.2 74.667-17.2s52.86 6.35 75.663 17.646l-0.996-0.446 72.96 35.413c16.553 8.606 36.143 13.654 56.912 13.654 0.092 0 0.184 0 0.275 0h18.759c0.163 0.002 0.356 0.004 0.549 0.004 21.155 0 38.714-15.396 42.083-35.594l0.034-0.249 32.427-195.413c0.175-1.027 0.275-2.209 0.275-3.415 0-11.782-9.551-21.333-21.333-21.333-0.097 0-0.193 0.001-0.29 0.002h-554.652c-0.082-0.001-0.178-0.002-0.275-0.002-11.782 0-21.333 9.551-21.333 21.333 0 1.206 0.1 2.388 0.292 3.54l-0.017-0.125zM889.173 334.934l-35.84 36.693c-7.709 7.648-18.326 12.374-30.047 12.374-0.087 0-0.173 0-0.26-0.001h-622.067c-0.073 0-0.16 0.001-0.247 0.001-11.721 0-22.338-4.726-30.049-12.377l0.003 0.003-36.267-36.693c-3.772-3.845-6.1-9.118-6.1-14.935 0-11.677 9.381-21.162 21.018-21.331h725.349c11.652 0.169 21.034 9.655 21.034 21.331 0 5.817-2.328 11.090-6.104 14.939l0.003-0.003zM725.333 213.334c-55.778-0.215-105.219-27.154-136.213-68.671l-0.321-0.449c-20.939 16.513-47.705 26.487-76.8 26.487s-55.861-9.973-77.065-26.688l0.265 0.201c-31.467 41.636-80.89 68.264-136.531 68.264-94.257 0-170.667-76.41-170.667-170.667s76.41-170.667 170.667-170.667c94.257 0 170.667 76.41 170.667 170.667 0 0.301-0.001 0.602-0.002 0.902v-0.046c0 23.564 19.103 42.667 42.667 42.667s42.667-19.103 42.667-42.667v0c0-94.257 76.41-170.667 170.667-170.667s170.667 76.41 170.667 170.667c0 94.257-76.41 170.667-170.667 170.667v0zM298.667-42.666c-47.128 0-85.333 38.205-85.333 85.333s38.205 85.333 85.333 85.333c47.128 0 85.333-38.205 85.333-85.333v0c0-47.128-38.205-85.333-85.333-85.333v0zM725.333-42.666c-47.128 0-85.333 38.205-85.333 85.333s38.205 85.333 85.333 85.333c47.128 0 85.333-38.205 85.333-85.333v0c0-47.128-38.205-85.333-85.333-85.333v0z" />
<glyph unicode="&#xe938;" glyph-name="info_outined" d="M512 725.334c-235.641 0-426.667-191.025-426.667-426.667s191.025-426.667 426.667-426.667c235.641 0 426.667 191.025 426.667 426.667v0c0 235.641-191.025 426.667-426.667 426.667v0zM512-42.666c-188.513 0-341.333 152.82-341.333 341.333s152.82 341.333 341.333 341.333c188.513 0 341.333-152.82 341.333-341.333v0c0-188.513-152.82-341.333-341.333-341.333v0zM554.667 277.334c0 11.782-9.551 21.333-21.333 21.333v0h-42.667c-11.782 0-21.333-9.551-21.333-21.333v0-128c0-11.782 9.551-21.333 21.333-21.333v0h42.667c11.782 0 21.333 9.551 21.333 21.333v0zM554.667 448c0 11.782-9.551 21.333-21.333 21.333v0h-42.667c-11.782 0-21.333-9.551-21.333-21.333v0-42.667c0-11.782 9.551-21.333 21.333-21.333v0h42.667c11.782 0 21.333 9.551 21.333 21.333v0z" />
<glyph unicode="&#xe939;" glyph-name="info" d="M512 725.334c-235.641 0-426.667-191.025-426.667-426.667s191.025-426.667 426.667-426.667c235.641 0 426.667 191.025 426.667 426.667v0c0 235.641-191.025 426.667-426.667 426.667v0zM554.667 149.334c0-11.782-9.551-21.333-21.333-21.333v0h-42.667c-11.782 0-21.333 9.551-21.333 21.333v0 128c0 11.782 9.551 21.333 21.333 21.333v0h42.667c11.782 0 21.333-9.551 21.333-21.333v0zM554.667 405.334c0-11.782-9.551-21.333-21.333-21.333v0h-42.667c-11.782 0-21.333 9.551-21.333 21.333v0 42.667c0 11.782 9.551 21.333 21.333 21.333v0h42.667c11.782 0 21.333-9.551 21.333-21.333v0z" />
<glyph unicode="&#xe93a;" glyph-name="key" d="M853.333 682.667h-60.16c-11.656-0.051-22.2-4.767-29.869-12.376l-306.344-306.344c-27.642 12.668-59.965 20.054-94.013 20.054-0.099 0-0.197 0-0.296 0h0.016c-129.603 0-234.667-105.064-234.667-234.667s105.064-234.667 234.667-234.667c129.603 0 234.667 105.064 234.667 234.667v0c-0.078 33.962-7.294 66.219-20.225 95.377l0.598-1.511 37.547 37.547c7.606 7.667 12.323 18.211 12.373 29.857v30.73c0.008 8.833 3.594 16.828 9.386 22.613v0l11.093 11.093c5.786 5.793 13.78 9.379 22.612 9.387h75.948c11.782 0 21.333 9.551 21.333 21.333v0 75.093c0.008 8.833 3.594 16.828 9.386 22.613v0h2.133c3.549 4.828 9.035 8.055 15.29 8.529l0.070 0.004h79.787c11.782 0 21.333 9.551 21.333 21.333v0 106.667c0 23.564-19.103 42.667-42.667 42.667v0zM317.44 18.774c-47.128 0-85.333 38.205-85.333 85.333s38.205 85.333 85.333 85.333c47.128 0 85.333-38.205 85.333-85.333v0c0-47.128-38.205-85.333-85.333-85.333v0z" />
<glyph unicode="&#xe93b;" glyph-name="label_important" d="M883.627 665.174l-5.12 5.12c-7.667 7.606-18.211 12.323-29.857 12.373h-336.65c-0.020 0-0.044 0-0.068 0-23.441 0-44.675-9.452-60.097-24.752l0.006 0.006-317.44-316.587c-3.949-3.809-6.402-9.146-6.402-15.057 0-0.107 0.001-0.213 0.002-0.319v0.016-8.533c-0.001-0.090-0.002-0.197-0.002-0.303 0-5.911 2.453-11.248 6.396-15.051l29.446-29.446c7.667-7.606 18.211-12.323 29.857-12.373h232.97c11.712-0.172 22.255-5.037 29.86-12.793l5.127-5.127c7.763-7.612 12.628-18.155 12.8-29.835v-232.139c0.051-11.656 4.767-22.2 12.376-29.869l29.437-29.437c3.809-3.949 9.146-6.402 15.057-6.402 0.107 0 0.213 0.001 0.319 0.002h8.517c0.090-0.001 0.197-0.002 0.303-0.002 5.911 0 11.248 2.453 15.051 6.396l316.593 316.593c14.796 15.325 23.912 36.217 23.912 59.238 0 0.624-0.007 1.247-0.020 1.868l0.002-0.093v336.64c-0.051 11.656-4.767 22.2-12.376 29.869l0.003-0.003zM679.68 381.44c-47.128 0-85.333 38.205-85.333 85.333s38.205 85.333 85.333 85.333c47.128 0 85.333-38.205 85.333-85.333v0c0-47.128-38.205-85.333-85.333-85.333v0z" />
<glyph unicode="&#xe93c;" glyph-name="label_off" d="M889.6-26.453c3.984-3.745 6.465-9.050 6.465-14.933s-2.481-11.188-6.454-14.923l-0.011-0.010-22.613-22.613c-3.745-3.984-9.050-6.465-14.933-6.465s-11.188 2.481-14.923 6.454l-0.010 0.011-140.373 139.947-133.973-133.973c-7.712-7.668-18.343-12.407-30.080-12.407s-22.368 4.74-30.082 12.409l-362.238 362.238c-7.668 7.712-12.407 18.343-12.407 30.080s4.74 22.368 12.409 30.082l133.971 133.971-139.947 140.373c-3.984 3.745-6.465 9.050-6.465 14.933s2.481 11.188 6.454 14.923l0.011 0.010 22.613 22.613c3.745 3.984 9.050 6.465 14.933 6.465s11.188-2.481 14.923-6.454l0.010-0.011zM883.627 665.174l-5.12 5.12c-7.877 7.522-18.523 12.204-30.26 12.373h-339.233c-0.020 0-0.044 0-0.068 0-23.653 0-45.059-9.624-60.515-25.169l-68.271-68.271 422.4-422.4 68.267 68.267c15.55 15.46 25.173 36.866 25.173 60.519 0 0.024 0 0.048 0 0.071v-0.004 339.2c-0.169 11.771-4.851 22.416-12.39 30.311l0.016-0.017z" />
<glyph unicode="&#xe93d;" glyph-name="label_outlined" d="M883.627 665.174l-5.12 5.12c-7.877 7.522-18.523 12.204-30.26 12.373h-339.233c-0.020 0-0.044 0-0.068 0-23.653 0-45.059-9.624-60.515-25.169l-308.057-308.057c-7.668-7.712-12.407-18.343-12.407-30.080s4.74-22.368 12.409-30.082l362.238-362.238c7.712-7.668 18.343-12.407 30.080-12.407s22.368 4.74 30.082 12.409l308.051 308.051c15.55 15.46 25.173 36.866 25.173 60.519 0 0.024 0 0.048 0 0.071v-0.004 339.2c-0.169 11.771-4.851 22.416-12.39 30.311l0.016-0.017zM810.667 295.68l-277.76-278.187-302.080 302.080 278.187 277.76h301.653zM640 341.334c47.128 0 85.333 38.205 85.333 85.333s-38.205 85.333-85.333 85.333c-47.128 0-85.333-38.205-85.333-85.333v0c0-47.128 38.205-85.333 85.333-85.333v0z" />
<glyph unicode="&#xe93e;" glyph-name="label" d="M883.627 665.174l-5.12 5.12c-7.877 7.522-18.523 12.204-30.26 12.373h-339.233c-0.020 0-0.044 0-0.068 0-23.653 0-45.059-9.624-60.515-25.169l-308.057-308.057c-7.668-7.712-12.407-18.343-12.407-30.080s4.74-22.368 12.409-30.082l362.238-362.238c7.712-7.668 18.343-12.407 30.080-12.407s22.368 4.74 30.082 12.409l308.051 308.051c15.55 15.46 25.173 36.866 25.173 60.519 0 0.024 0 0.048 0 0.071v-0.004 339.2c-0.169 11.771-4.851 22.416-12.39 30.311l0.016-0.017zM682.667 384c-47.128 0-85.333 38.205-85.333 85.333s38.205 85.333 85.333 85.333c47.128 0 85.333-38.205 85.333-85.333v0c0-47.128-38.205-85.333-85.333-85.333v0z" />
<glyph unicode="&#xe93f;" glyph-name="labels_outlined" d="M725.333 640v-301.653l-277.76-278.187-302.080 302.080 278.187 277.76h301.653zM762.88 725.334h-339.2c-0.020 0-0.044 0-0.068 0-23.653 0-45.059-9.624-60.515-25.169l-308.057-308.057c-7.668-7.712-12.407-18.343-12.407-30.080s4.74-22.368 12.409-30.082l362.238-362.238c7.712-7.668 18.343-12.407 30.080-12.407s22.368 4.74 30.082 12.409l308.051 308.051c15.55 15.46 25.173 36.866 25.173 60.519 0 0.024 0 0.048 0 0.071v-0.004 339.2c-0.169 11.771-4.851 22.416-12.39 30.311l0.016-0.017-5.12 5.12c-7.877 7.522-18.523 12.204-30.26 12.373h-0.033zM640 469.334c0 47.128-38.205 85.333-85.333 85.333s-85.333-38.205-85.333-85.333c0-47.128 38.205-85.333 85.333-85.333v0c47.128 0 85.333 38.205 85.333 85.333v0zM968.96 537.174l-5.12 5.12c-7.877 7.522-18.523 12.204-30.26 12.373h-37.58v-251.733c0-0.020 0-0.044 0-0.068 0-23.653-9.624-45.059-25.169-60.515l-0.004-0.004-323.413-322.987 37.973-37.973c5.789-5.782 13.784-9.359 22.613-9.359s16.824 3.576 22.614 9.359v0l298.667 298.667c32.116 31.073 52.053 74.564 52.053 122.711 0 0.059 0 0.119 0 0.178v-0.009 203.947c-0.169 11.771-4.851 22.416-12.39 30.311l0.016-0.017z" />
<glyph unicode="&#xe940;" glyph-name="labels" d="M810.667 338.347v339.2c-0.169 11.771-4.851 22.416-12.39 30.311l0.016-0.017-5.12 5.12c-7.877 7.522-18.523 12.204-30.26 12.373h-339.233c-0.020 0-0.044 0-0.068 0-23.653 0-45.059-9.624-60.515-25.169l-308.057-308.057c-7.668-7.712-12.407-18.343-12.407-30.080s4.74-22.368 12.409-30.082l362.238-362.238c7.712-7.668 18.343-12.407 30.080-12.407s22.368 4.74 30.082 12.409l308.051 308.051c15.55 15.46 25.173 36.866 25.173 60.519 0 0.024 0 0.048 0 0.071v-0.004zM597.333 426.667c-47.128 0-85.333 38.205-85.333 85.333s38.205 85.333 85.333 85.333c47.128 0 85.333-38.205 85.333-85.333v0c0-47.128-38.205-85.333-85.333-85.333v0zM968.96 537.174l-5.12 5.12c-7.877 7.522-18.523 12.204-30.26 12.373h-37.58v-251.733c0-0.020 0-0.044 0-0.068 0-23.653-9.624-45.059-25.169-60.515l-0.004-0.004-323.413-322.987 37.973-37.973c5.789-5.782 13.784-9.359 22.613-9.359s16.824 3.576 22.614 9.359v0l298.667 298.667c32.116 31.073 52.053 74.564 52.053 122.711 0 0.059 0 0.119 0 0.178v-0.009 203.947c-0.169 11.771-4.851 22.416-12.39 30.311l0.016-0.017z" />
<glyph unicode="&#xe941;" glyph-name="last_page" d="M265.387 518.4l30.293 29.867c3.867 3.898 9.225 6.31 15.147 6.31s11.28-2.413 15.145-6.309l0.001-0.001 219.307-218.88c5.793-5.786 9.379-13.78 9.387-22.612v-16.215c-0.106-8.817-3.668-16.781-9.392-22.619l0.005 0.005-219.307-218.88c-3.867-3.898-9.225-6.31-15.147-6.31s-11.28 2.413-15.145 6.309l-30.294 30.294c-3.874 3.798-6.275 9.085-6.275 14.933s2.401 11.136 6.272 14.93l0.003 0.003 189.867 189.44-189.867 189.44c-3.898 3.867-6.31 9.225-6.31 15.147s2.413 11.28 6.309 15.145l0.001 0.001zM661.333 42.667h42.667c11.782 0 21.333 9.551 21.333 21.333v0 469.333c0 11.782-9.551 21.333-21.333 21.333v0h-42.667c-11.782 0-21.333-9.551-21.333-21.333v0-469.333c0-11.782 9.551-21.333 21.333-21.333v0z" />
<glyph unicode="&#xe942;" glyph-name="layout" d="M426.667 597.334v-597.333c0-23.564-19.103-42.667-42.667-42.667v0h-256c-23.564 0-42.667 19.103-42.667 42.667v0 597.333c0 23.564 19.103 42.667 42.667 42.667v0h256c23.564 0 42.667-19.103 42.667-42.667v0zM640 256h-85.333c-23.564 0-42.667-19.103-42.667-42.667v0-213.333c0-23.564 19.103-42.667 42.667-42.667v0h85.333c23.564 0 42.667 19.103 42.667 42.667v0 213.333c0 23.564-19.103 42.667-42.667 42.667v0zM896 256h-85.333c-23.564 0-42.667-19.103-42.667-42.667v0-213.333c0-23.564 19.103-42.667 42.667-42.667v0h85.333c23.564 0 42.667 19.103 42.667 42.667v0 213.333c0 23.564-19.103 42.667-42.667 42.667v0zM896 640h-341.333c-23.564 0-42.667-19.103-42.667-42.667v0-213.333c0-23.564 19.103-42.667 42.667-42.667v0h341.333c23.564 0 42.667 19.103 42.667 42.667v0 213.333c0 23.564-19.103 42.667-42.667 42.667v0z" />
<glyph unicode="&#xe943;" glyph-name="move_page" d="M384 320v-42.667c0-11.782-9.551-21.333-21.333-21.333v0h-106.667v-85.333c-0.169-11.652-9.655-21.034-21.331-21.034-5.817 0-11.090 2.328-14.939 6.104l-127.997 127.997c-3.797 3.912-6.137 9.256-6.137 15.147s2.341 11.234 6.142 15.152l127.995 127.995c3.845 3.771 9.117 6.099 14.934 6.099 11.782 0 21.333-9.551 21.333-21.333 0-0.044 0-0.088 0-0.132v0.007-85.333h106.667c11.782 0 21.333-9.551 21.333-21.333v0zM384 554.667h85.333v-106.667c0-11.782 9.551-21.333 21.333-21.333v0h42.667c11.782 0 21.333 9.551 21.333 21.333v0 106.667h85.333c0.037 0 0.081 0 0.125 0 11.782 0 21.333 9.551 21.333 21.333 0 5.816-2.328 11.089-6.102 14.937l-127.997 127.997c-3.912 3.797-9.256 6.137-15.147 6.137s-11.234-2.341-15.152-6.142l-127.995-127.995c-3.772-3.845-6.1-9.118-6.1-14.935 0-11.677 9.381-21.162 21.018-21.331h0.016zM640 42.667h-85.333v106.667c0 11.782-9.551 21.333-21.333 21.333v0h-42.667c-11.782 0-21.333-9.551-21.333-21.333v0-106.667h-85.333c-11.652-0.169-21.034-9.655-21.034-21.331 0-5.817 2.328-11.090 6.104-14.939l127.997-127.997c3.912-3.797 9.256-6.137 15.147-6.137s11.234 2.341 15.152 6.142l127.995 127.995c3.771 3.845 6.099 9.117 6.099 14.934 0 11.782-9.551 21.333-21.333 21.333-0.044 0-0.088 0-0.132 0h0.007zM932.693 313.6l-128 128c-3.886 4.028-9.331 6.529-15.36 6.529-11.782 0-21.333-9.551-21.333-21.333 0-0.045 0-0.091 0-0.136v0.007-85.333h-106.667c-11.782 0-21.333-9.551-21.333-21.333v0-42.667c0-11.782 9.551-21.333 21.333-21.333v0h106.667v-85.333c0.169-11.652 9.655-21.034 21.331-21.034 5.817 0 11.090 2.328 14.939 6.104l127.997 127.997c3.804 3.914 6.149 9.263 6.149 15.159 0 5.678-2.175 10.848-5.737 14.723l0.014-0.016z" />
<glyph unicode="&#xe944;" glyph-name="multi_direction_diagonal" d="M799.147 525.227l-226.987-226.56 226.56-226.987 60.587 60.587c3.845 3.772 9.118 6.1 14.935 6.1 11.677 0 21.162-9.381 21.331-21.018v-181.349c-0.452-11.596-9.737-20.882-21.291-21.332l-0.042-0.001h-180.907c-0.037 0-0.081 0-0.125 0-11.782 0-21.333 9.551-21.333 21.333 0 5.816 2.328 11.089 6.102 14.937l60.584 60.584-226.56 226.987-226.987-226.56 60.587-60.587c3.772-3.845 6.1-9.118 6.1-14.935 0-11.677-9.381-21.162-21.018-21.331h-181.349c-11.596 0.452-20.882 9.737-21.332 21.291l-0.001 0.042v180.907c0 0.037 0 0.081 0 0.125 0 11.782 9.551 21.333 21.333 21.333 5.816 0 11.089-2.328 14.937-6.102l60.584-60.584 226.987 226.56-226.56 226.987-60.587-60.587c-3.886-4.028-9.331-6.529-15.36-6.529-11.782 0-21.333 9.551-21.333 21.333 0 0.045 0 0.091 0 0.136v-0.007 181.333c0.452 11.596 9.737 20.882 21.291 21.332l0.042 0.001h181.333c0.037 0 0.081 0 0.125 0 11.782 0 21.333-9.551 21.333-21.333 0-5.816-2.328-11.089-6.102-14.937l-60.584-60.584 226.56-226.987 226.987 226.56-60.587 60.587c-4.028 3.886-6.529 9.331-6.529 15.36 0 11.782 9.551 21.333 21.333 21.333 0.045 0 0.091 0 0.136 0h181.326c11.596-0.452 20.882-9.737 21.332-21.291l0.001-0.042v-181.333c0-0.037 0-0.081 0-0.125 0-11.782-9.551-21.333-21.333-21.333-5.816 0-11.089 2.328-14.937 6.102l0.003-0.003z" />
<glyph unicode="&#xe945;" glyph-name="multi_direction" d="M932.693 283.307l-128-128c-3.887-4.032-9.335-6.536-15.367-6.536-11.782 0-21.333 9.551-21.333 21.333 0 0.198 0.003 0.395 0.008 0.592l-0.001-0.029v85.333h-213.333v-213.333h85.333c0.037 0 0.081 0 0.125 0 11.782 0 21.333-9.551 21.333-21.333 0-5.816-2.328-11.089-6.102-14.937l-127.997-127.997c-3.912-3.797-9.256-6.137-15.147-6.137s-11.234 2.341-15.152 6.142l-127.995 127.995c-3.772 3.845-6.1 9.118-6.1 14.935 0 11.677 9.381 21.162 21.018 21.331h85.349v213.333h-213.333v-85.333c-0.169-11.652-9.655-21.034-21.331-21.034-5.817 0-11.090 2.328-14.939 6.104l-127.997 127.997c-3.797 3.912-6.137 9.256-6.137 15.147s2.341 11.234 6.142 15.152l127.995 127.995c3.845 3.771 9.117 6.099 14.934 6.099 11.782 0 21.333-9.551 21.333-21.333 0-0.044 0-0.088 0-0.132v0.007-85.333h213.333v213.333h-85.333c-11.652 0.169-21.034 9.655-21.034 21.331 0 5.817 2.328 11.090 6.104 14.939l127.997 127.997c3.912 3.797 9.256 6.137 15.147 6.137s11.234-2.341 15.152-6.142l127.995-127.995c3.771-3.845 6.099-9.117 6.099-14.934 0-11.782-9.551-21.333-21.333-21.333-0.044 0-0.088 0-0.132 0h-85.326v-213.333h213.333v85.333c0 0.037 0 0.081 0 0.125 0 11.782 9.551 21.333 21.333 21.333 5.816 0 11.089-2.328 14.937-6.102l127.997-127.997c4.051-3.956 6.563-9.471 6.563-15.574 0-5.89-2.34-11.234-6.142-15.151l0.005 0.005z" />
<glyph unicode="&#xe946;" glyph-name="notebook_bookmarked" d="M213.333 554.667v-213.333h-64c-11.782 0-21.333-9.551-21.333-21.333v0-42.667c0-11.782 9.551-21.333 21.333-21.333v0h64v-213.333h-64c-11.782 0-21.333-9.551-21.333-21.333v0-42.667c0-11.782 9.551-21.333 21.333-21.333v0h64c0-47.128 38.205-85.333 85.333-85.333v0h512c47.128 0 85.333 38.205 85.333 85.333v0 682.667c0 47.128-38.205 85.333-85.333 85.333v0h-512c-47.128 0-85.333-38.205-85.333-85.333v0h-64c-11.782 0-21.333-9.551-21.333-21.333v0-42.667c0-11.782 9.551-21.333 21.333-21.333v0zM554.667 618.667c0 11.782 9.551 21.333 21.333 21.333v0h213.333c11.782 0 21.333-9.551 21.333-21.333v0-298.667c0.001-0.073 0.001-0.16 0.001-0.246 0-11.782-9.551-21.333-21.333-21.333-4.459 0-8.598 1.368-12.021 3.707l0.073-0.047-82.773 55.467c-3.38 2.189-7.511 3.491-11.947 3.491s-8.567-1.302-12.034-3.544l0.087 0.053-82.773-55.467c-3.35-2.292-7.489-3.66-11.948-3.66-11.782 0-21.333 9.551-21.333 21.333 0 0.087 0.001 0.173 0.002 0.26v-0.013z" />
<glyph unicode="&#xe947;" glyph-name="notice_outlined" d="M512-81.92v-24.747c0-11.782-9.551-21.333-21.333-21.333v0h-82.347c-15.533 0.003-29.126 8.305-36.586 20.714l-0.107 0.193-97.28 162.133c-7.503 12.252-12.9 26.636-15.277 42.017l-0.083 0.65h104.107c0.286 0.002 0.625 0.003 0.964 0.003 23.791 0 46.483-4.703 67.198-13.231l-1.175 0.428 17.92-117.333c5.962-12.762 17.697-21.959 31.752-24.286l0.248-0.034 14.080-2.56c10.25-1.679 17.976-10.471 17.976-21.068 0-0.544-0.020-1.083-0.060-1.617l0.004 0.071zM938.667 341.334c0-38.614-12.824-74.232-34.444-102.829l0.311 0.429c-3.989-4.318-9.68-7.012-16-7.012s-12.011 2.695-15.987 6.998l-0.013 0.015-30.72 30.72c-3.814 3.853-6.17 9.154-6.17 15.006 0 4.427 1.349 8.54 3.658 11.949l-0.048-0.075c8.815 13.215 14.066 29.461 14.066 46.933s-5.251 33.719-14.262 47.246l0.196-0.313c-2.261 3.334-3.61 7.446-3.61 11.874 0 5.852 2.356 11.153 6.172 15.008l30.718 30.718c3.944 3.973 9.407 6.433 15.446 6.433 0.42 0 0.837-0.012 1.252-0.035l-0.057 0.003c6.25-0.747 11.647-3.899 15.325-8.488l0.035-0.045c21.318-28.171 34.146-63.796 34.146-102.417 0-0.744-0.005-1.487-0.014-2.229l0.001 0.113zM768 682.667v-682.667c0-23.564-19.103-42.667-42.667-42.667v0h-25.173c-11.656 0.051-22.2 4.767-29.869 12.376l0.003-0.003-128 125.867c-45.892 45.951-109.154 74.546-179.095 75.093l-0.105 0.001h-149.76c-70.692 0-128 57.308-128 128v0 85.333c0 70.692 57.308 128 128 128v0h149.76c0.060 0 0.13 0 0.201 0 70.748 0 134.794 28.699 181.129 75.091l0.003 0.003 128 125.867c7.667 7.606 18.211 12.323 29.857 12.373h23.050c23.564 0 42.667-19.103 42.667-42.667v0zM682.667 604.587l-78.080-78.080c-46.97-47.181-107.772-80.556-175.808-93.532l-2.112-0.335v-182.613c70.148-13.311 130.95-46.686 177.908-93.854l78.092-78.092z" />
<glyph unicode="&#xe948;" glyph-name="notice" d="M512-81.92v-24.747c0-11.782-9.551-21.333-21.333-21.333v0h-82.347c-15.533 0.003-29.126 8.305-36.586 20.714l-0.107 0.193-97.28 162.133c-7.503 12.252-12.9 26.636-15.277 42.017l-0.083 0.65h104.107c0.286 0.002 0.625 0.003 0.964 0.003 23.791 0 46.483-4.703 67.198-13.231l-1.175 0.428 17.92-117.333c5.962-12.762 17.697-21.959 31.752-24.286l0.248-0.034 14.080-2.56c10.25-1.679 17.976-10.471 17.976-21.068 0-0.544-0.020-1.083-0.060-1.617l0.004 0.071zM938.667 341.334c0-38.614-12.824-74.232-34.444-102.829l0.311 0.429c-3.989-4.318-9.68-7.012-16-7.012s-12.011 2.695-15.987 6.998l-0.013 0.015-30.72 30.72c-3.814 3.853-6.17 9.154-6.17 15.006 0 4.427 1.349 8.54 3.658 11.949l-0.048-0.075c8.815 13.215 14.066 29.461 14.066 46.933s-5.251 33.719-14.262 47.246l0.196-0.313c-2.261 3.334-3.61 7.446-3.61 11.874 0 5.852 2.356 11.153 6.172 15.008l30.718 30.718c3.944 3.973 9.407 6.433 15.446 6.433 0.42 0 0.837-0.012 1.252-0.035l-0.057 0.003c6.25-0.747 11.647-3.899 15.325-8.488l0.035-0.045c21.318-28.171 34.146-63.796 34.146-102.417 0-0.744-0.005-1.487-0.014-2.229l0.001 0.113zM768 682.667v-682.667c0-23.564-19.103-42.667-42.667-42.667v0h-25.173c-11.656 0.051-22.2 4.767-29.869 12.376l0.003-0.003-128 125.867c-45.892 45.951-109.154 74.546-179.095 75.093l-0.105 0.001h-149.76c-70.692 0-128 57.308-128 128v0 85.333c0 70.692 57.308 128 128 128v0h149.76c0.060 0 0.13 0 0.201 0 70.748 0 134.794 28.699 181.129 75.091l0.003 0.003 128 125.867c7.667 7.606 18.211 12.323 29.857 12.373h23.050c23.564 0 42.667-19.103 42.667-42.667v0z" />
<glyph unicode="&#xe949;" glyph-name="open_in_new" d="M896 234.667v-234.667c0-47.128-38.205-85.333-85.333-85.333v0h-597.333c-47.128 0-85.333 38.205-85.333 85.333v0 597.333c0 47.128 38.205 85.333 85.333 85.333v0h234.667c11.782 0 21.333-9.551 21.333-21.333v0-42.667c0-11.782-9.551-21.333-21.333-21.333v0h-234.667v-597.333h597.333v234.667c0 11.782 9.551 21.333 21.333 21.333v0h42.667c11.782 0 21.333-9.551 21.333-21.333v0zM886.613 661.334l-11.52 11.52c-5.533 5.758-13.183 9.447-21.694 9.811l-0.066 0.002h-277.333c-11.782 0-21.333-9.551-21.333-21.333v0-42.667c0-11.782 9.551-21.333 21.333-21.333v0h174.507l-360.107-360.107c-3.898-3.867-6.31-9.225-6.31-15.147s2.413-11.28 6.309-15.145l29.868-29.868c3.867-3.898 9.225-6.31 15.147-6.31s11.28 2.413 15.145 6.309l0.001 0.001 360.107 359.68v-174.080c0-11.782 9.551-21.333 21.333-21.333v0h42.667c11.782 0 21.333 9.551 21.333 21.333v0 277.333c-0.246 8.522-3.786 16.172-9.386 21.759l-0.001 0.001z" />
<glyph unicode="&#xe94a;" glyph-name="pages_outlined" d="M640 597.334v-597.333h-426.667v597.333h426.667zM640 682.667h-426.667c-47.128 0-85.333-38.205-85.333-85.333v0-597.333c0-47.128 38.205-85.333 85.333-85.333v0h426.667c47.128 0 85.333 38.205 85.333 85.333v0 597.333c0 47.128-38.205 85.333-85.333 85.333v0zM896 554.667v-512c0-23.564-19.103-42.667-42.667-42.667v0h-42.667v597.333h42.667c23.564 0 42.667-19.103 42.667-42.667v0z" />
<glyph unicode="&#xe94b;" glyph-name="pages" d="M640 682.667h-426.667c-47.128 0-85.333-38.205-85.333-85.333v0-597.333c0-47.128 38.205-85.333 85.333-85.333v0h426.667c47.128 0 85.333 38.205 85.333 85.333v0 597.333c0 47.128-38.205 85.333-85.333 85.333v0zM896 554.667v-512c0-23.564-19.103-42.667-42.667-42.667v0h-42.667v597.333h42.667c23.564 0 42.667-19.103 42.667-42.667v0z" />
<glyph unicode="&#xe94c;" glyph-name="publish" d="M810.667 21.334v-42.667c0-11.782-9.551-21.333-21.333-21.333v0h-554.667c-11.782 0-21.333 9.551-21.333 21.333v0 42.667c0 11.782 9.551 21.333 21.333 21.333v0h554.667c11.782 0 21.333-9.551 21.333-21.333v0zM258.56 390.4c3.809-3.949 9.146-6.402 15.057-6.402 0.107 0 0.213 0.001 0.319 0.002h110.064v-234.667c0-11.782 9.551-21.333 21.333-21.333v0h213.333c11.782 0 21.333 9.551 21.333 21.333v0 234.667h110.080c0.090-0.001 0.197-0.002 0.303-0.002 5.911 0 11.248 2.453 15.051 6.396l8.539 8.539c3.898 3.867 6.31 9.225 6.31 15.147s-2.413 11.28-6.309 15.145l-247.041 247.041c-3.745 3.984-9.050 6.465-14.933 6.465s-11.188-2.481-14.923-6.454l-0.010-0.011-247.040-247.040c-3.898-3.867-6.31-9.225-6.31-15.147s2.413-11.28 6.309-15.145l0.001-0.001z" />
<glyph unicode="&#xe94d;" glyph-name="record_screen" d="M938.667 554.667v-106.667c0-11.782-9.551-21.333-21.333-21.333v0h-42.667c-11.782 0-21.333 9.551-21.333 21.333v0 106.667h-106.667c-11.782 0-21.333 9.551-21.333 21.333v0 42.667c0 11.782 9.551 21.333 21.333 21.333v0h106.667c47.128 0 85.333-38.205 85.333-85.333v0zM106.667 426.667h42.667c11.782 0 21.333 9.551 21.333 21.333v0 106.667h106.667c11.782 0 21.333 9.551 21.333 21.333v0 42.667c0 11.782-9.551 21.333-21.333 21.333v0h-106.667c-47.128 0-85.333-38.205-85.333-85.333v0-106.667c0-11.782 9.551-21.333 21.333-21.333v0zM917.333 170.667h-42.667c-11.782 0-21.333-9.551-21.333-21.333v0-106.667h-106.667c-11.782 0-21.333-9.551-21.333-21.333v0-42.667c0-11.782 9.551-21.333 21.333-21.333v0h106.667c47.128 0 85.333 38.205 85.333 85.333v0 106.667c0 11.782-9.551 21.333-21.333 21.333v0zM277.333 42.667h-106.667v106.667c0 11.782-9.551 21.333-21.333 21.333v0h-42.667c-11.782 0-21.333-9.551-21.333-21.333v0-106.667c0-47.128 38.205-85.333 85.333-85.333v0h106.667c11.782 0 21.333 9.551 21.333 21.333v0 42.667c0 11.782-9.551 21.333-21.333 21.333v0zM320 469.334c-35.346 0-64-28.654-64-64s28.654-64 64-64c35.346 0 64 28.654 64 64v0c0 35.346-28.654 64-64 64v0z" />
<glyph unicode="&#xe94e;" glyph-name="refresh" d="M874.667 384h-213.333c-11.782 0-21.333 9.551-21.333 21.333v0 12.373c-0.001 0.090-0.002 0.197-0.002 0.303 0 5.911 2.453 11.248 6.396 15.051l75.953 75.953c-53.573 54.431-128.004 88.195-210.323 88.32h-0.024c-164.659-0.384-297.993-133.954-297.993-298.666 0-164.949 133.718-298.667 298.667-298.667 157.893 0 287.169 122.522 297.941 277.677l0.052 0.935c0.695 11.218 9.963 20.053 21.295 20.053 0.014 0 0.027 0 0.041 0h42.665c6.050-0.185 11.464-2.765 15.353-6.819l0.007-0.008c3.467-3.781 5.592-8.841 5.592-14.399 0-0.488-0.016-0.973-0.049-1.453l0.004 0.065c-12.214-202.184-179.17-361.529-383.342-361.529-212.077 0-384 171.923-384 384s171.923 384 384 384c106.052 0 202.062-42.991 271.554-112.496l0.001-0.001 63.573 63.573c3.781 3.92 9.068 6.365 14.927 6.4h12.38c11.782 0 21.333-9.551 21.333-21.333v0-213.333c0-11.782-9.551-21.333-21.333-21.333v0z" />
<glyph unicode="&#xe94f;" glyph-name="remaining_time" d="M113.493 450.987c2.402 6.306 7.785 10.983 14.379 12.351l0.127 0.022c2.566 1.211 5.574 1.918 8.747 1.918s6.181-0.707 8.875-1.972l-0.128 0.054 37.973-21.76c6.518-3.625 10.854-10.472 10.854-18.331 0-2.771-0.539-5.416-1.518-7.835l0.050 0.14c-6.329-16.954-11.808-37.175-15.475-58.019l-0.312-2.141c-1.694-10.172-10.393-17.843-20.898-17.92h-42.675c-1.614-0.42-3.467-0.661-5.376-0.661-5.057 0-9.719 1.692-13.451 4.541l0.054-0.039c-3.062 3.773-4.916 8.634-4.916 13.928 0 1.107 0.081 2.196 0.238 3.259l-0.015-0.121c4.513 34.507 12.739 65.758 24.403 95.275l-0.936-2.688zM180.907 567.467c-2.907-3.51-4.671-8.058-4.671-13.019 0-1.433 0.147-2.831 0.427-4.18l-0.023 0.133c1.017-6.3 4.848-11.536 10.137-14.454l0.103-0.052 37.973-23.893c3.071-1.937 6.808-3.087 10.813-3.087 6.495 0 12.283 3.023 16.035 7.739l0.032 0.042c12.23 14.743 25.364 27.877 39.616 39.711l0.491 0.396c6.153 3.61 10.219 10.192 10.219 17.724 0 4.204-1.267 8.112-3.439 11.364l0.047-0.074-21.76 37.973c-2.97 5.392-8.207 9.223-14.391 10.225l-0.115 0.015c-1.217 0.257-2.615 0.404-4.048 0.404-4.961 0-9.509-1.764-13.053-4.698l0.034 0.027c-24.113-18.582-45.249-39.040-63.895-61.63l-0.532-0.664zM370.347 628.907c3.746-6.468 10.635-10.75 18.523-10.75 2.696 0 5.275 0.5 7.65 1.413l-0.146-0.049c16.954 6.329 37.175 11.808 58.019 15.475l2.141 0.312c10.172 1.694 17.843 10.393 17.92 20.898v42.675c0.105 0.809 0.164 1.745 0.164 2.695 0 5.497-1.999 10.527-5.31 14.403l0.026-0.031c-3.773 3.062-8.634 4.916-13.928 4.916-1.107 0-2.196-0.081-3.259-0.238l0.121 0.015c-33.801-4.706-64.299-12.915-93.132-24.409l2.678 0.942c-5.935-2.086-10.484-6.776-12.336-12.661l-0.038-0.139c-1.211-2.566-1.918-5.574-1.918-8.747s0.707-6.181 1.972-8.875l-0.054 0.128zM573.867 720.64c-0.898 0.134-1.934 0.21-2.988 0.21-11.782 0-21.333-9.551-21.333-21.333 0-0.074 0-0.148 0.001-0.221v0.011-42.667c-0.002-0.103-0.003-0.226-0.003-0.348 0-10.426 7.479-19.104 17.364-20.965l0.132-0.021c163.492-27.31 286.564-167.738 286.564-336.911 0-188.513-152.82-341.333-341.333-341.333-169.173 0-309.601 123.072-336.634 284.566l-0.276 1.998c-1.881 10.018-10.56 17.496-20.985 17.496-0.122 0-0.244-0.001-0.366-0.003h-42.649c-0.062 0.001-0.136 0.001-0.21 0.001-11.782 0-21.333-9.551-21.333-21.333 0-1.054 0.076-2.090 0.224-3.103l-0.014 0.115c31.17-207.63 208.3-365.016 422.189-365.016 235.641 0 426.667 191.025 426.667 426.667 0 213.889-157.385 391.019-362.665 421.898l-2.35 0.291zM277.333 336.64c-11.782 0-21.333-9.551-21.333-21.333v0-32.427c0-11.782 9.551-21.333 21.333-21.333v0h250.88c11.687 0.234 21.099 9.647 21.333 21.311v250.475c0 11.782-9.551 21.333-21.333 21.333v0h-32.427c-11.782 0-21.333-9.551-21.333-21.333v0-197.12z" />
<glyph unicode="&#xe950;" glyph-name="remove_circle_outlined" d="M512 725.334c-235.641 0-426.667-191.025-426.667-426.667s191.025-426.667 426.667-426.667c235.641 0 426.667 191.025 426.667 426.667v0c0 235.641-191.025 426.667-426.667 426.667v0zM512-42.666c-188.513 0-341.333 152.82-341.333 341.333s152.82 341.333 341.333 341.333c188.513 0 341.333-152.82 341.333-341.333v0c0-188.513-152.82-341.333-341.333-341.333v0zM661.333 341.334h-298.667c-11.782 0-21.333-9.551-21.333-21.333v0-42.667c0-11.782 9.551-21.333 21.333-21.333v0h298.667c11.782 0 21.333 9.551 21.333 21.333v0 42.667c0 11.782-9.551 21.333-21.333 21.333v0z" />
<glyph unicode="&#xe951;" glyph-name="remove_circle" d="M512 725.334c-235.641 0-426.667-191.025-426.667-426.667s191.025-426.667 426.667-426.667c235.641 0 426.667 191.025 426.667 426.667v0c0 235.641-191.025 426.667-426.667 426.667v0zM362.667 256c-11.782 0-21.333 9.551-21.333 21.333v0 42.667c0 11.782 9.551 21.333 21.333 21.333v0h298.667c11.782 0 21.333-9.551 21.333-21.333v0-42.667c0-11.782-9.551-21.333-21.333-21.333v0z" />
<glyph unicode="&#xe952;" glyph-name="remove_square_outlined" d="M896 597.334c0 47.128-38.205 85.333-85.333 85.333v0h-597.333c-47.128 0-85.333-38.205-85.333-85.333v0-597.333c0-47.128 38.205-85.333 85.333-85.333v0h597.333c47.128 0 85.333 38.205 85.333 85.333v0zM810.667-0h-597.333v597.333h597.333zM362.667 256h298.667c11.782 0 21.333 9.551 21.333 21.333v0 42.667c0 11.782-9.551 21.333-21.333 21.333v0h-298.667c-11.782 0-21.333-9.551-21.333-21.333v0-42.667c0-11.782 9.551-21.333 21.333-21.333v0z" />
<glyph unicode="&#xe953;" glyph-name="remove_square" d="M810.667 682.667h-597.333c-47.128 0-85.333-38.205-85.333-85.333v0-597.333c0-47.128 38.205-85.333 85.333-85.333v0h597.333c47.128 0 85.333 38.205 85.333 85.333v0 597.333c0 47.128-38.205 85.333-85.333 85.333v0zM682.667 277.334c0-11.782-9.551-21.333-21.333-21.333v0h-298.667c-11.782 0-21.333 9.551-21.333 21.333v0 42.667c0 11.782 9.551 21.333 21.333 21.333v0h298.667c11.782 0 21.333-9.551 21.333-21.333v0z" />
<glyph unicode="&#xe954;" glyph-name="remove" d="M234.667 256c-11.782 0-21.333 9.551-21.333 21.333v0 42.667c0 11.782 9.551 21.333 21.333 21.333v0h554.667c11.782 0 21.333-9.551 21.333-21.333v0-42.667c0-11.782-9.551-21.333-21.333-21.333v0z" />
<glyph unicode="&#xe955;" glyph-name="restore" d="M938.667 298.667c0-212.077-171.923-384-384-384v0c-0.37-0.001-0.808-0.002-1.246-0.002-82.048 0-158.012 26.051-220.071 70.333l1.156-0.784c-5.009 3.64-8.382 9.269-8.954 15.704l-0.006 0.083c-0.046 0.527-0.073 1.141-0.073 1.76 0 5.79 2.306 11.041 6.051 14.885l-0.005-0.005 30.72 31.147c3.853 3.814 9.154 6.17 15.006 6.17 4.427 0 8.54-1.349 11.949-3.658l-0.075 0.048c46.221-31.531 103.304-50.348 164.781-50.348 0.269 0 0.538 0 0.807 0.001h-0.042c164.949 0 298.667 133.718 298.667 298.667s-133.718 298.667-298.667 298.667c-164.949 0-298.667-133.718-298.667-298.667v0h100.693c0.090 0.001 0.197 0.002 0.303 0.002 5.911 0 11.248-2.453 15.051-6.396l8.539-8.539c3.898-3.867 6.31-9.225 6.31-15.147s-2.413-11.28-6.309-15.145l-0.001-0.001-150.613-151.040c-3.912-3.797-9.256-6.137-15.147-6.137s-11.234 2.341-15.152 6.142l0.005-0.005-150.613 151.040c-3.898 3.867-6.31 9.225-6.31 15.147s2.413 11.28 6.309 15.145l8.534 8.534c3.809 3.949 9.146 6.402 15.057 6.402 0.107 0 0.213-0.001 0.319-0.002h97.691c0 212.077 171.923 384 384 384s384-171.923 384-384v0z" />
<glyph unicode="&#xe956;" glyph-name="search" d="M889.6-18.773l-170.667 170.667c-5.419 5.543-11.429 10.469-17.94 14.687l-0.406 0.247-42.667 29.44c41.339 50.827 66.377 116.356 66.377 187.732 0 164.949-133.718 298.667-298.667 298.667s-298.667-133.718-298.667-298.667c0-164.949 133.718-298.667 298.667-298.667 0.364 0 0.729 0.001 1.093 0.002h-0.056c0.026 0 0.056 0 0.087 0 70.76 0 135.773 24.607 186.948 65.732l-0.581-0.452 32-42.667c3.983-5.726 8.189-10.746 12.801-15.361l170.666-170.666c3.867-3.898 9.225-6.31 15.147-6.31s11.28 2.413 15.145 6.309l29.868 29.868c3.91 3.869 6.331 9.235 6.331 15.167 0 5.497-2.079 10.509-5.494 14.292l0.017-0.019zM426.667 170.667c-117.821 0-213.333 95.513-213.333 213.333s95.513 213.333 213.333 213.333c117.821 0 213.333-95.513 213.333-213.333v0c0-117.821-95.513-213.333-213.333-213.333v0z" />
<glyph unicode="&#xe957;" glyph-name="settings_back" d="M938.667 298.667c0-212.077-171.923-384-384-384v0c-0.37-0.001-0.808-0.002-1.246-0.002-82.048 0-158.012 26.051-220.071 70.333l1.156-0.784c-5.009 3.64-8.382 9.269-8.954 15.704l-0.006 0.083c-0.046 0.527-0.073 1.141-0.073 1.76 0 5.79 2.306 11.041 6.051 14.885l-0.005-0.005 30.72 31.147c3.853 3.814 9.154 6.17 15.006 6.17 4.427 0 8.54-1.349 11.949-3.658l-0.075 0.048c46.221-31.531 103.304-50.348 164.781-50.348 0.269 0 0.538 0 0.807 0.001h-0.042c164.949 0 298.667 133.718 298.667 298.667s-133.718 298.667-298.667 298.667c-164.949 0-298.667-133.718-298.667-298.667v0h100.693c0.090 0.001 0.197 0.002 0.303 0.002 5.911 0 11.248-2.453 15.051-6.396l8.539-8.539c3.898-3.867 6.31-9.225 6.31-15.147s-2.413-11.28-6.309-15.145l-0.001-0.001-150.613-151.040c-3.912-3.797-9.256-6.137-15.147-6.137s-11.234 2.341-15.152 6.142l0.005-0.005-150.613 151.040c-3.898 3.867-6.31 9.225-6.31 15.147s2.413 11.28 6.309 15.145l8.534 8.534c3.809 3.949 9.146 6.402 15.057 6.402 0.107 0 0.213-0.001 0.319-0.002h97.691c0 212.077 171.923 384 384 384s384-171.923 384-384v0zM640 298.667c0 47.128-38.205 85.333-85.333 85.333s-85.333-38.205-85.333-85.333c0-47.128 38.205-85.333 85.333-85.333v0c47.128 0 85.333 38.205 85.333 85.333v0z" />
<glyph unicode="&#xe958;" glyph-name="shopping_basket_add" d="M341.333 384l170.667 227.413 170.667-227.413zM981.333 362.667c0 11.782-9.551 21.333-21.333 21.333v0h-170.667l-246.187 328.533c-5.981 7.709-15.198 12.661-25.577 12.8h-11.116c-10.402-0.139-19.619-5.091-25.544-12.725l-0.056-0.075-246.187-328.533h-170.667c-11.782 0-21.333-9.551-21.333-21.333v0-42.667c0-11.782 9.551-21.333 21.333-21.333v0h21.333l72.96-326.4c13.026-57.248 63.124-99.464 123.219-100.266l0.088-0.001h460.8c60.71 0.183 111.461 42.602 124.422 99.408l0.165 0.859 71.68 326.4h20.053c11.782 0 21.333 9.551 21.333 21.333v0zM618.667 90.454h-69.12v-69.12c0-11.782-9.551-21.333-21.333-21.333v0h-32.427c-11.782 0-21.333 9.551-21.333 21.333v0 69.12h-69.12c-11.782 0-21.333 9.551-21.333 21.333v0 32.427c0 11.782 9.551 21.333 21.333 21.333v0h69.12v69.12c0 11.782 9.551 21.333 21.333 21.333v0h32.427c11.782 0 21.333-9.551 21.333-21.333v0-69.12h69.12c11.782 0 21.333-9.551 21.333-21.333v0-32.427c0-11.782-9.551-21.333-21.333-21.333v0z" />
<glyph unicode="&#xe959;" glyph-name="shopping_basket_clear" d="M960 384h-170.667l-246.187 328.533c-5.981 7.709-15.198 12.661-25.577 12.8h-11.116c-10.402-0.139-19.619-5.091-25.544-12.725l-0.056-0.075-246.187-328.533h-170.667c-11.782 0-21.333-9.551-21.333-21.333v0-42.667c0-11.782 9.551-21.333 21.333-21.333v0h21.333l72.96-326.4c13.026-57.248 63.124-99.464 123.219-100.266l0.088-0.001h460.8c60.71 0.183 111.461 42.602 124.422 99.408l0.165 0.859 71.68 326.4h20.053c11.782 0 21.333 9.551 21.333 21.333v0 42.667c0 0.011 0 0.025 0 0.038 0 11.332-8.835 20.6-19.993 21.292l-0.061 0.003zM633.6 58.88c3.984-3.745 6.465-9.050 6.465-14.933s-2.481-11.188-6.454-14.923l-0.011-0.010-22.613-22.613c-3.745-3.984-9.050-6.465-14.933-6.465s-11.188 2.481-14.923 6.454l-0.010 0.011-69.12 68.693-69.12-68.693c-3.745-3.984-9.050-6.465-14.933-6.465s-11.188 2.481-14.923 6.454l-0.010 0.011-22.613 22.613c-3.984 3.745-6.465 9.050-6.465 14.933s2.481 11.188 6.454 14.923l0.011 0.010 68.693 69.12-68.693 69.12c-3.984 3.745-6.465 9.050-6.465 14.933s2.481 11.188 6.454 14.923l0.011 0.010 22.613 22.613c3.745 3.984 9.050 6.465 14.933 6.465s11.188-2.481 14.923-6.454l0.010-0.011 69.12-68.693 69.12 68.693c3.745 3.984 9.050 6.465 14.933 6.465s11.188-2.481 14.923-6.454l0.010-0.011 22.613-22.613c3.984-3.745 6.465-9.050 6.465-14.933s-2.481-11.188-6.454-14.923l-0.011-0.010-68.693-69.12zM341.333 384l170.667 227.413 170.667-227.413z" />
<glyph unicode="&#xe95a;" glyph-name="shopping_basket_outlined" d="M960 384h-170.667l-246.187 328.533c-5.981 7.709-15.198 12.661-25.577 12.8h-11.116c-10.402-0.139-19.619-5.091-25.544-12.725l-0.056-0.075-246.187-328.533h-170.667c-11.782 0-21.333-9.551-21.333-21.333v0-42.667c0-11.782 9.551-21.333 21.333-21.333v0h21.333l72.96-326.4c13.026-57.248 63.124-99.464 123.219-100.266l0.088-0.001h460.8c60.71 0.183 111.461 42.602 124.422 99.408l0.165 0.859 71.68 326.4h20.053c11.782 0 21.333 9.551 21.333 21.333v0 42.667c0 0.011 0 0.025 0 0.038 0 11.332-8.835 20.6-19.993 21.292l-0.061 0.003zM512 611.414l170.667-227.413h-341.333zM783.787-9.386c-4.434-19.198-21.383-33.293-41.624-33.293-0.367 0-0.732 0.005-1.096 0.014l0.054-0.001h-459.52c-0.31-0.008-0.676-0.013-1.042-0.013-20.241 0-37.19 14.095-41.568 33.005l-0.056 0.288-68.267 308.053h682.667z" />
<glyph unicode="&#xe95b;" glyph-name="shopping_basket_remove" d="M981.333 362.667c0 11.782-9.551 21.333-21.333 21.333v0h-170.667l-246.187 328.533c-5.981 7.709-15.198 12.661-25.577 12.8h-11.116c-10.402-0.139-19.619-5.091-25.544-12.725l-0.056-0.075-246.187-328.533h-170.667c-11.782 0-21.333-9.551-21.333-21.333v0-42.667c0-11.782 9.551-21.333 21.333-21.333v0h21.333l72.96-326.4c13.026-57.248 63.124-99.464 123.219-100.266l0.088-0.001h460.8c60.71 0.183 111.461 42.602 124.422 99.408l0.165 0.859 71.68 326.4h20.053c11.782 0 21.333 9.551 21.333 21.333v0zM341.333 384l170.667 227.413 170.667-227.413zM405.333 90.454c-11.782 0-21.333 9.551-21.333 21.333v0 32.427c0 11.782 9.551 21.333 21.333 21.333v0h213.333c11.782 0 21.333-9.551 21.333-21.333v0-32.427c0-11.782-9.551-21.333-21.333-21.333v0z" />
<glyph unicode="&#xe95c;" glyph-name="shopping_basket" d="M960 384h-170.667l-246.187 328.533c-5.981 7.709-15.198 12.661-25.577 12.8h-11.116c-10.402-0.139-19.619-5.091-25.544-12.725l-0.056-0.075-246.187-328.533h-170.667c-11.782 0-21.333-9.551-21.333-21.333v0-42.667c0-11.782 9.551-21.333 21.333-21.333v0h21.333l72.96-326.4c13.026-57.248 63.124-99.464 123.219-100.266l0.088-0.001h460.8c60.71 0.183 111.461 42.602 124.422 99.408l0.165 0.859 71.68 326.4h20.053c11.782 0 21.333 9.551 21.333 21.333v0 42.667c0 0.011 0 0.025 0 0.038 0 11.332-8.835 20.6-19.993 21.292l-0.061 0.003zM341.333 384l170.667 227.413 170.667-227.413z" />
<glyph unicode="&#xe95d;" glyph-name="shopping_cart_add" d="M853.333-42.666c0-47.128-38.205-85.333-85.333-85.333s-85.333 38.205-85.333 85.333c0 47.128 38.205 85.333 85.333 85.333v0c47.128 0 85.333-38.205 85.333-85.333v0zM341.333 42.667c-47.128 0-85.333-38.205-85.333-85.333s38.205-85.333 85.333-85.333c47.128 0 85.333 38.205 85.333 85.333v0c0 47.128-38.205 85.333-85.333 85.333v0zM917.333 640h-42.667c-11.782 0-21.333-9.551-21.333-21.333v0-21.333c-0.149-21.482-5.826-41.607-15.676-59.063l0.316 0.61-100.693-176.213c-6.632-11.555-18.222-19.619-31.791-21.312l-0.209-0.021h-265.813c-15.61 0.097-29.222 8.562-36.584 21.132l-0.109 0.201-182.613 320c-15.029 25.687-42.482 42.667-73.901 42.667-0.119 0-0.238 0-0.357-0.001h-39.235c-11.782 0-21.333-9.551-21.333-21.333v0-42.667c0-11.782 9.551-21.333 21.333-21.333v0h39.253l182.613-319.573c3.522-5.623 7.322-10.508 11.559-14.975l-0.039 0.042-79.36-157.867c-2.331-4.397-3.7-9.612-3.7-15.147s1.369-10.75 3.786-15.326l-0.086 0.179 9.387-16.213c5.764-9.526 16.068-15.795 27.837-15.795 0.264 0 0.527 0.003 0.789 0.009l-0.039-0.001h533.333c11.782 0 21.333 9.551 21.333 21.333v0 42.667c0 11.782-9.551 21.333-21.333 21.333v0h-464.213l42.667 89.173c8.132-2.235 17.509-3.623 27.176-3.838l0.131-0.002h265.813c45.903 0.952 85.648 26.418 106.768 63.801l0.325 0.626 100.267 176.213c17.14 28.849 27.4 63.539 27.733 100.599l0.001 0.095v21.333c0 11.782-9.551 21.333-21.333 21.333v0zM682.667 581.12v32.427c0 11.782-9.551 21.333-21.333 21.333v0h-69.12v69.12c0 11.782-9.551 21.333-21.333 21.333v0h-32.427c-11.782 0-21.333-9.551-21.333-21.333v0-69.12h-69.12c-11.782 0-21.333-9.551-21.333-21.333v0-32.427c0-11.782 9.551-21.333 21.333-21.333v0h69.12v-69.12c0-11.782 9.551-21.333 21.333-21.333v0h32.427c11.782 0 21.333 9.551 21.333 21.333v0 69.12h69.12c11.782 0 21.333 9.551 21.333 21.333v0z" />
<glyph unicode="&#xe95e;" glyph-name="shopping_cart_off" d="M144.213 718.934c-3.745 3.984-9.050 6.465-14.933 6.465s-11.188-2.481-14.923-6.454l-0.010-0.011-22.613-22.613c-3.984-3.745-6.465-9.050-6.465-14.933s2.481-11.188 6.454-14.923l0.011-0.010 91.733-91.733 145.067-256c3.522-5.623 7.322-10.508 11.559-14.975l-0.039 0.042-79.36-157.867c-2.331-4.397-3.7-9.612-3.7-15.147s1.369-10.75 3.786-15.326l-0.086 0.179 9.387-16.213c5.921-8.58 15.698-14.131 26.772-14.131 0.638 0 1.272 0.018 1.901 0.055l-0.087-0.004h373.76l52.907-53.76c-25.228-15.133-41.85-42.337-41.85-73.423 0-47.128 38.205-85.333 85.333-85.333 31.086 0 58.29 16.622 73.208 41.464l0.215 0.386 37.547-37.547c3.745-3.984 9.050-6.465 14.933-6.465s11.188 2.481 14.923 6.454l0.010 0.011 22.613 22.613c3.984 3.745 6.465 9.050 6.465 14.933s-2.481 11.188-6.454 14.923l-0.011 0.010zM367.787 170.667l42.667 89.173c8.132-2.235 17.509-3.623 27.176-3.838l0.131-0.002h62.293l85.333-85.333zM917.333 640h-588.373l384-384c42.228 4.254 77.898 28.889 97.38 63.79l0.326 0.636 100.267 176.213c17.14 28.849 27.4 63.539 27.733 100.599l0.001 0.095v21.333c0 11.782-9.551 21.333-21.333 21.333v0zM341.333 42.667c-47.128 0-85.333-38.205-85.333-85.333s38.205-85.333 85.333-85.333c47.128 0 85.333 38.205 85.333 85.333v0c0 47.128-38.205 85.333-85.333 85.333v0z" />
<glyph unicode="&#xe95f;" glyph-name="shopping_cart_outlined" d="M917.333 640h-673.28l-23.893 42.667c-15.029 25.687-42.482 42.667-73.901 42.667-0.119 0-0.238 0-0.357-0.001h-39.235c-11.782 0-21.333-9.551-21.333-21.333v0-42.667c0-11.782 9.551-21.333 21.333-21.333v0h39.253l182.613-319.573c3.522-5.623 7.322-10.508 11.559-14.975l-0.039 0.042-79.36-157.867c-2.331-4.397-3.7-9.612-3.7-15.147s1.369-10.75 3.786-15.326l-0.086 0.179 9.387-16.213c5.764-9.526 16.068-15.795 27.837-15.795 0.264 0 0.527 0.003 0.789 0.009l-0.039-0.001h533.333c11.782 0 21.333 9.551 21.333 21.333v0 42.667c0 11.782-9.551 21.333-21.333 21.333v0h-464.213l42.667 89.173c8.132-2.235 17.509-3.623 27.176-3.838l0.131-0.002h265.813c45.903 0.952 85.648 26.418 106.768 63.801l0.325 0.626 100.267 176.213c17.14 28.849 27.4 63.539 27.733 100.599l0.001 0.095v21.333c0 11.782-9.551 21.333-21.333 21.333v0zM737.28 362.667c-6.632-11.555-18.222-19.619-31.791-21.312l-0.209-0.021h-265.813c-15.61 0.097-29.222 8.562-36.584 21.132l-0.109 0.201-109.653 192h551.253c-2.133-5.12-3.84-10.667-6.4-15.787zM768 42.667c-47.128 0-85.333-38.205-85.333-85.333s38.205-85.333 85.333-85.333c47.128 0 85.333 38.205 85.333 85.333v0c0 47.128-38.205 85.333-85.333 85.333v0zM341.333 42.667c-47.128 0-85.333-38.205-85.333-85.333s38.205-85.333 85.333-85.333c47.128 0 85.333 38.205 85.333 85.333v0c0 47.128-38.205 85.333-85.333 85.333v0z" />
<glyph unicode="&#xe960;" glyph-name="shopping_cart_remove" d="M853.333-42.666c0-47.128-38.205-85.333-85.333-85.333s-85.333 38.205-85.333 85.333c0 47.128 38.205 85.333 85.333 85.333v0c47.128 0 85.333-38.205 85.333-85.333v0zM341.333 42.667c-47.128 0-85.333-38.205-85.333-85.333s38.205-85.333 85.333-85.333c47.128 0 85.333 38.205 85.333 85.333v0c0 47.128-38.205 85.333-85.333 85.333v0zM938.667 618.667c0 11.782-9.551 21.333-21.333 21.333v0h-42.667c-11.782 0-21.333-9.551-21.333-21.333v0-21.333c-0.149-21.482-5.826-41.607-15.676-59.063l0.316 0.61-100.693-176.213c-6.632-11.555-18.222-19.619-31.791-21.312l-0.209-0.021h-265.813c-15.61 0.097-29.222 8.562-36.584 21.132l-0.109 0.201-182.613 320c-15.029 25.687-42.482 42.667-73.901 42.667-0.119 0-0.238 0-0.357-0.001h-39.235c-11.782 0-21.333-9.551-21.333-21.333v0-42.667c0-11.782 9.551-21.333 21.333-21.333v0h39.253l182.613-319.573c3.522-5.623 7.322-10.508 11.559-14.975l-0.039 0.042-79.36-157.867c-2.331-4.397-3.7-9.612-3.7-15.147s1.369-10.75 3.786-15.326l-0.086 0.179 9.387-16.213c5.764-9.526 16.068-15.795 27.837-15.795 0.264 0 0.527 0.003 0.789 0.009l-0.039-0.001h533.333c11.782 0 21.333 9.551 21.333 21.333v0 42.667c0 11.782-9.551 21.333-21.333 21.333v0h-464.213l42.667 89.173c8.132-2.235 17.509-3.623 27.176-3.838l0.131-0.002h265.813c45.903 0.952 85.648 26.418 106.768 63.801l0.325 0.626 100.267 176.213c17.14 28.849 27.4 63.539 27.733 100.599l0.001 0.095zM448 634.88c-11.782 0-21.333-9.551-21.333-21.333v0-32.427c0-11.782 9.551-21.333 21.333-21.333v0h213.333c11.782 0 21.333 9.551 21.333 21.333v0 32.427c0 11.782-9.551 21.333-21.333 21.333v0z" />
<glyph unicode="&#xe961;" glyph-name="shopping_cart" d="M853.333-42.666c0-47.128-38.205-85.333-85.333-85.333s-85.333 38.205-85.333 85.333c0 47.128 38.205 85.333 85.333 85.333v0c47.128 0 85.333-38.205 85.333-85.333v0zM341.333 42.667c-47.128 0-85.333-38.205-85.333-85.333s38.205-85.333 85.333-85.333c47.128 0 85.333 38.205 85.333 85.333v0c0 47.128-38.205 85.333-85.333 85.333v0zM917.333 640h-673.28l-23.893 42.667c-15.029 25.687-42.482 42.667-73.901 42.667-0.119 0-0.238 0-0.357-0.001h-39.235c-11.782 0-21.333-9.551-21.333-21.333v0-42.667c0-11.782 9.551-21.333 21.333-21.333v0h39.253l182.613-319.573c3.522-5.623 7.322-10.508 11.559-14.975l-0.039 0.042-79.36-157.867c-2.331-4.397-3.7-9.612-3.7-15.147s1.369-10.75 3.786-15.326l-0.086 0.179 9.387-16.213c5.764-9.526 16.068-15.795 27.837-15.795 0.264 0 0.527 0.003 0.789 0.009l-0.039-0.001h533.333c11.782 0 21.333 9.551 21.333 21.333v0 42.667c0 11.782-9.551 21.333-21.333 21.333v0h-464.213l42.667 89.173c8.132-2.235 17.509-3.623 27.176-3.838l0.131-0.002h265.813c45.903 0.952 85.648 26.418 106.768 63.801l0.325 0.626 100.267 176.213c17.14 28.849 27.4 63.539 27.733 100.599l0.001 0.095v21.333c0 11.782-9.551 21.333-21.333 21.333v0z" />
<glyph unicode="&#xe962;" glyph-name="snooze_notification" d="M840.96 140.374l-35.413 35.413c-23.171 23.143-37.515 55.12-37.547 90.447v117.766c0 57.921-19.235 111.348-51.667 154.244l0.467-0.644-38.4 51.2c-23.6 31.229-60.668 51.2-102.4 51.2v0h-21.333v64c0 11.782-9.551 21.333-21.333 21.333v0h-42.667c-11.782 0-21.333-9.551-21.333-21.333v0-64h-21.333c-41.732 0-78.8-19.971-102.167-50.878l-0.233-0.322-38.4-51.2c-31.965-42.252-51.2-95.679-51.2-153.6v0-117.76c-0.032-35.333-14.375-67.31-37.545-90.452l-35.414-35.414c-7.606-7.667-12.323-18.211-12.373-29.857v-25.183c0-23.564 19.103-42.667 42.667-42.667v0h597.333c23.564 0 42.667 19.103 42.667 42.667v0 25.173c-0.051 11.656-4.767 22.2-12.376 29.869l0.003-0.003zM640 453.547c-0.016-10.82-4.057-20.693-10.706-28.205l0.039 0.045-160-180.053h149.333c11.782 0 21.333-9.551 21.333-21.333v0-32c0-11.782-9.551-21.333-21.333-21.333v0h-213.333c-11.782 0-21.333 9.551-21.333 21.333v0 37.12c0.342 10.36 4.326 19.728 10.705 26.925l-0.039-0.045 160 181.333h-149.333c-11.782 0-21.333 9.551-21.333 21.333v0 32c0 11.782 9.551 21.333 21.333 21.333v0h213.333c11.782 0 21.333-9.551 21.333-21.333v0zM512-128c47.128 0 85.333 38.205 85.333 85.333v0h-170.667c0-47.128 38.205-85.333 85.333-85.333v0z" />
<glyph unicode="&#xe963;" glyph-name="snooze" d="M512 640c-212.077 0-384-171.923-384-384s171.923-384 384-384c212.077 0 384 171.923 384 384v0c0 212.077-171.923 384-384 384v0zM512-42.666c-164.949 0-298.667 133.718-298.667 298.667s133.718 298.667 298.667 298.667c164.949 0 298.667-133.718 298.667-298.667v0c0-164.949-133.718-298.667-298.667-298.667v0zM618.667 426.667h-213.333c-11.782 0-21.333-9.551-21.333-21.333v0-42.667c0-11.782 9.551-21.333 21.333-21.333v0h138.667l-148.48-158.293c-7.137-7.608-11.521-17.873-11.521-29.161 0-0.098 0-0.196 0.001-0.294v0.015-46.933c0-11.782 9.551-21.333 21.333-21.333v0h213.333c11.782 0 21.333 9.551 21.333 21.333v0 42.667c0 11.782-9.551 21.333-21.333 21.333v0h-138.667l148.48 158.293c7.137 7.608 11.521 17.873 11.521 29.161 0 0.098 0 0.196-0.001 0.294v-0.015 46.933c0 11.782-9.551 21.333-21.333 21.333v0zM296.107 680.107c1.612 1.802 2.597 4.193 2.597 6.814 0 0.305-0.013 0.606-0.039 0.904l0.003-0.039c-0.191 3.218-1.628 6.068-3.832 8.099l-0.008 0.008c-22.002 18.371-50.585 29.525-81.772 29.525-70.692 0-128-57.308-128-128 0-31.294 11.231-59.966 29.881-82.204l-0.162 0.199c2.093-2.054 4.943-3.343 8.093-3.413h0.013c0.132-0.006 0.287-0.010 0.442-0.010 2.826 0 5.385 1.145 7.238 2.996v0zM810.667 725.334c-0.074 0-0.162 0-0.25 0-31.141 0-59.685-11.121-81.876-29.607l0.206 0.167c-2.212-2.039-3.649-4.888-3.838-8.074l-0.002-0.033c-0.006-0.132-0.010-0.287-0.010-0.442 0-2.826 1.145-5.385 2.996-7.238l165.547-165.547c1.853-1.851 4.412-2.996 7.238-2.996 0.156 0 0.31 0.003 0.464 0.010l-0.022-0.001c3.218 0.191 6.068 1.628 8.099 3.832l0.008 0.008c18.446 22.026 29.648 50.665 29.648 81.92 0 70.692-57.308 128-128 128-0.073 0-0.146 0-0.22 0h0.011z" />
<glyph unicode="&#xe964;" glyph-name="sort" d="M896 320v-42.667c0-11.782-9.551-21.333-21.333-21.333v0h-554.667c-11.782 0-21.333 9.551-21.333 21.333v0 42.667c0 11.782 9.551 21.333 21.333 21.333v0h554.667c11.782 0 21.333-9.551 21.333-21.333v0zM874.667 85.334h-170.667c-11.782 0-21.333-9.551-21.333-21.333v0-42.667c0-11.782 9.551-21.333 21.333-21.333v0h170.667c11.782 0 21.333 9.551 21.333 21.333v0 42.667c0 11.782-9.551 21.333-21.333 21.333v0zM874.667 597.334h-448c-164.949 0-298.667-133.718-298.667-298.667s133.718-298.667 298.667-298.667v0-85.333c0.169-11.652 9.655-21.034 21.331-21.034 5.817 0 11.090 2.328 14.939 6.104l127.997 127.997c3.797 3.912 6.137 9.256 6.137 15.147s-2.341 11.234-6.142 15.152l-127.995 127.995c-3.845 3.771-9.117 6.099-14.934 6.099-11.782 0-21.333-9.551-21.333-21.333 0-0.044 0-0.088 0-0.132v0.007-85.333c-117.821 0-213.333 95.513-213.333 213.333s95.513 213.333 213.333 213.333v0h448c11.782 0 21.333 9.551 21.333 21.333v0 42.667c0 11.782-9.551 21.333-21.333 21.333v0z" />
<glyph unicode="&#xe965;" glyph-name="star_half" d="M938.667 413.014l-3.413 10.667c-2.52 8.32-9.871 14.374-18.713 14.93l-0.060 0.003-272.64 21.76-106.24 251.307c-3.034 8.042-10.666 13.658-19.61 13.658-0.156 0-0.311-0.002-0.467-0.005h-11.070c-0.085 0.001-0.185 0.002-0.286 0.002-9.098 0-16.891-5.583-20.142-13.51l-0.053-0.145-104.533-251.307-272.64-21.76c-8.903-0.56-16.254-6.613-18.735-14.785l-0.039-0.148-4.693-10.667c-0.749-2.064-1.182-4.446-1.182-6.93 0-6.467 2.936-12.248 7.548-16.083l0.034-0.028 206.933-176.64-61.44-265.387c-0.398-1.556-0.626-3.343-0.626-5.184 0-7.107 3.407-13.419 8.678-17.39l0.055-0.040 10.667-6.4c3.372-2.663 7.684-4.271 12.372-4.271 0.151 0 0.301 0.002 0.451 0.005h-0.022c0.13-0.003 0.283-0.005 0.436-0.005 3.941 0 7.622 1.113 10.745 3.042l-0.088-0.051 232.107 142.080 233.387-142.080c3.036-1.878 6.716-2.991 10.657-2.991 0.153 0 0.306 0.002 0.459 0.005h-0.023c0.127-0.003 0.278-0.005 0.428-0.005 4.688 0 9 1.608 12.414 4.304l-0.042-0.032 9.387 6.4c5.326 4.011 8.733 10.323 8.733 17.43 0 1.84-0.228 3.627-0.658 5.334l0.032-0.15-61.44 265.387 207.36 177.067c4.385 3.852 7.138 9.471 7.138 15.733 0 2.465-0.427 4.831-1.21 7.027l0.045-0.146zM640 239.787l47.787-199.68-175.787 107.093v432.64l79.36-190.293 205.227-16.213z" />
<glyph unicode="&#xe966;" glyph-name="star_outlined" d="M591.36 389.547l205.227-16.213-156.587-133.547 47.787-199.68-175.787 107.093-176.213-107.093 48.213 199.68-156.587 133.547 205.227 16.213 79.36 190.293zM506.453 725.334c-0.085 0.001-0.185 0.002-0.286 0.002-9.098 0-16.891-5.583-20.142-13.51l-0.053-0.145-104.533-251.307-272.64-21.76c-8.903-0.56-16.254-6.613-18.735-14.785l-0.039-0.148-4.693-10.667c-0.749-2.064-1.182-4.446-1.182-6.93 0-6.467 2.936-12.248 7.548-16.083l0.034-0.028 206.933-176.64-61.44-265.387c-0.398-1.556-0.626-3.343-0.626-5.184 0-7.107 3.407-13.419 8.678-17.39l0.055-0.040 10.667-6.4c3.372-2.663 7.684-4.271 12.372-4.271 0.151 0 0.301 0.002 0.451 0.005h-0.022c0.13-0.003 0.283-0.005 0.436-0.005 3.941 0 7.622 1.113 10.745 3.042l-0.088-0.051 232.107 142.080 233.387-142.080c3.036-1.878 6.716-2.991 10.657-2.991 0.153 0 0.306 0.002 0.459 0.005h-0.023c0.127-0.003 0.278-0.005 0.428-0.005 4.688 0 9 1.608 12.414 4.304l-0.042-0.032 9.387 6.4c5.326 4.011 8.733 10.323 8.733 17.43 0 1.84-0.228 3.627-0.658 5.334l0.032-0.15-61.44 265.387 207.36 177.067c4.385 3.852 7.138 9.471 7.138 15.733 0 2.465-0.427 4.831-1.21 7.027l0.045-0.146-3.413 10.667c-2.52 8.32-9.871 14.374-18.713 14.93l-0.060 0.003-272.64 21.76-106.24 251.307c-3.034 8.042-10.666 13.658-19.61 13.658-0.156 0-0.311-0.002-0.467-0.005h0.023z" />
</font>
</defs>
</svg>
